• -
  • -
  • done
Download
  • Uncut.Gems.BDRip.720p.HD.m4v
  • 7.5 GB
  • pk5360114
  • Uncut Gems BDRip 720p m4v
  • Видео HD

Description

Неогранённые драгоценности / Uncut Gems

-

image 7.253 / 10 image 7.60 / 10


image

Год выпуска : 2019

Страна : США

Жанр : Триллер, драма, криминал

Продолжительность : 02:15:08

Перевод 1 : Дублированный (Пифагор)

Перевод 2 : Одноголосый закадровый (Михаил Яроцкий)

(ненормативная лексика)

Оригинальная аудиодорожка : Есть

Cубтитры : Русские форсированные, Русские, Английские, Английские

Режиссёр : Бен Сэфди, Джошуа Сэфди

Сценарий : Рональд Бронштейн, Джошуа Сэфди, Бен Сэфди

Продюсер : Майкл Бартол, Себастьян Бир-Макклард, Оскар Бойсон

Оператор : Дариус Хонджи

Композитор : Дэниэл Лопатин

Художник : Сэм Лисенко, Эрик Дин, Мияко Беллицци

Монтаж : Рональд Бронштейн, Бен Сэфди

В ролях : Адам Сэндлер, Джулия Фокс, Идина Мензел, Лакит Стэнфилд, Кевин Гарнетт, Эрик Богосян, Кит Уильямс Ричардс, Джадд Хёрш, Майк Франчеза, Ноа Фишер

Сборы в США : $49 962 985

Мировая премьера : 30 августа 2019

Описание : 2012 год. Говард Ратнер владеет небольшим ювелирным магазином в Нью-Йорке. Являясь большим фанатом НБА, он жизни не мыслит без ставок на игры, поэтому находится по уши в долгах и постоянно скрывается от кредиторов. Однажды подельник приводит к нему в магазин ведущего игрока «Бостон Селтикс» Кевина Гарнетта, и в это же время из Эфиопии приходит посылка с редкими неогранёнными чёрными опалами. Зачарованный их блеском Гарнетт буквально приклеивается к этому куску породы, просит одолжить его на несколько дней и оставляет в залог чемпионское кольцо. Говард тут же закладывает кольцо в соседнем ломбарде и на вырученную сумму делает ставку на игру «Селтикс».


Качество исходника : BDRemux https://rutracker.org/forum/viewtopic.php?t=5860498

Качество : BDRip

Тип : HD (720p)

Контейнер : M4V

Видео : H.264, 1280x536, 2.40:1, 5 000 Kbps, 23.976 (24000/1001) fps

Аудио 1 : Русский/Дублированный (Пифагор), AAC / 2.0 / 160 Kbps / 48.0 KHz

Аудио 2 : Русский/Одноголосый закадровый (Михаил Яроцкий), AAC / 2.0 / 160 Kbps / 48.0 KHz

Аудио 3 : Английский/Оригинальная дорожка , AAC / 2.0 / 160 Kbps / 48.0 KHz

Аудио 4 : Русский/Дублированный (Пифагор), AC-3 / 5.1 / 640 Kbps / 48.0 KHz

Аудио 5 : Русский/Одноголосый закадровый (Михаил Яроцкий), AC-3 / 5.1 / 640 Kbps / 48.0 KHz

Аудио 6 : Английский/Оригинальная дорожка , AC-3 / 5.1 / 640 Kbps / 48.0 KHz

Субтитры 1 : Русские форсированные

Субтитры 2 : Русские полные

Субтитры 3 : Английские полные

Субтитры 4 : Английские SDH


iTunes Meta Tags

Код:

Sort Name: Uncut Gems
XID: Apple:vendor_id:2019-1076152
contentID: 1488851266
Screenwriters: Рональд Бронштейн, Джошуа Сэфди, Бен Сэфди
Producers: Майкл Бартол, Себастьян Бир-Макклард, Оскар Бойсон
Director: Бен Сэфди, Джошуа Сэфди
Cast: Адам Сэндлер, Джулия Фокс, Идина Мензел, Лакит Стэнфилд, Кевин Гарнетт, Эрик Богосян, Кит Уильямс Ричардс, Джадд Хёрш, Майк Франчеза, Ноа Фишер
Studio: A24
Rating: 5
Long Description: 2012 год. Говард Ратнер владеет небольшим ювелирным магазином в Нью-Йорке. Являясь большим фанатом НБА, он жизни не мыслит без ставок на игры, поэтому находится по уши в долгах и постоянно скрывается от кредиторов. Однажды подельник приводит к нему в магазин ведущего игрока «Бостон Селтикс» Кевина Гарнетта, и в это же время из Эфиопии приходит посылка с редкими неогранёнными чёрными опалами. Зачарованный их блеском Гарнетт буквально приклеивается к этому куску породы, просит одолжить его на несколько дней и оставляет в залог чемпионское кольцо. Говард тут же закладывает кольцо в соседнем ломбарде и на вырученную сумму делает ставку на игру «Селтикс».
Description: 2012 год. Говард Ратнер владеет небольшим ювелирным магазином в Нью-Йорке. Являясь большим фанатом НБА, он жизни не мыслит без ставок на игры, поэтому находится по уши в долгах и постоянно скрывается от кредиторов. Однажды подельник приводит к нему в магазин ведущего игрока «Бостон Селтикс» Кевина Гарнетта, и в это же время из Эфиопии приходит посылка с редкими неогранёнными чёрными опалами.
Release Date: 2019-12-13T08:00:00Z
Genre: Thriller
Artist: Benny Safdie & Josh Safdie
Name: Uncut Gems

MediaInfo

Код:

General
Complete name                            : /Users/imac/HandBrake/Uncut.Gems.BDRip.720p.HD.m4v
Format                                   : MPEG-4
Codec ID                                 : M4V  (M4V /M4A /mp42/isom)
File size                                : 6.98 GiB
Duration                                 : 2h 15mn
Overall bit rate mode                    : Variable
Overall bit rate                         : 7 357 Kbps
Movie name                               : Uncut Gems
Performer                                : Benny Safdie & Josh Safdie
Director                                 : Бен Сэфди / Джошуа Сэфди
Actor                                    : Адам Сэндлер / Джулия Фокс / Идина Мензел / Лакит Стэнфилд / Кевин Гарнетт / Эрик Богосян / Кит Уильямс Ричардс / Джадд Хёрш / Майк Франчеза / Ноа Фишер
Screenplay by                            : Рональд Бронштейн / Джошуа Сэфди / Бен Сэфди
Producer                                 : Майкл Бартол / Себастьян Бир-Макклард / Оскар Бойсон
Production studio                        : A24
Genre                                    : Thriller
ContentType                              : Short Film
Description                              : 2012 год. Говард Ратнер владеет небольшим ювелирным магазином в Нью-Йорке. Являясь большим фанатом НБА, он жизни не мыслит без ставок на игры, поэтому находится по уши в долгах и постоянно скрывается от кредиторов. Однажды подельник приводит к нему в магазин ведущего игрока «Бостон Селтикс» Кевина Гарнетта, и в это же время из Эфиопии приходит посылка с редкими неогранёнными чёрными опалами.
Recorded date                            : UTC 2019-12-13 08:00:00
Encoded date                             : UTC 2020-03-08 22:27:13
Tagged date                              : UTC 2020-03-08 22:30:07
Cover                                    : Yes
Rating                                   : None
Title/Sort                               : Uncut Gems
LongDescription                          : 2012 год. Говард Ратнер владеет небольшим ювелирным магазином в Нью-Йорке. Являясь большим фанатом НБА, он жизни не мыслит без ставок на игры, поэтому находится по уши в долгах и постоянно скрывается от кредиторов. Однажды подельник приводит к нему в магазин ведущего игрока «Бостон Селтикс» Кевина Гарнетта, и в это же время из Эфиопии приходит посылка с редкими неогранёнными чёрными опалами. Зачарованный их блеском Гарнетт буквально приклеивается к этому куску породы, просит одолжить его на несколько дней и оставляет в залог чемпионское кольцо. Говард тут же закладывает кольцо в соседнем ломбарде и на вырученную сумму делает ставку на игру «Селтикс».
HDVideo                                  : Yes
AppleStoreCatalogID                      : 1488851266
Vendor                                   : Apple:vendor_id:2019-1076152
ContentRating                            : mpaa|R|400|

Video #1
ID                                       : 1
Format                                   : AVC
Format/Info                              : Advanced Video Codec
Format profile                           : [email protected]
Format settings                          : 3 Ref Frames
Format settings, CABAC                   : No
Format settings, ReFrames                : 3 frames
Codec ID                                 : avc1
Codec ID/Info                            : Advanced Video Coding
Duration                                 : 2h 15mn
Bit rate                                 : 5 000 Kbps
Width                                    : 1 280 pixels
Height                                   : 536 pixels
Display aspect ratio                     : 2.40:1
Frame rate mode                          : Variable
Frame rate                               : 23.976 (24000/1001) fps
Minimum frame rate                       : 23.974 fps
Maximum frame rate                       : 23.981 fps
Color space                              : YUV
Chroma subsampling                       : 4:2:0
Bit depth                                : 8 bits
Scan type                                : Progressive
Bits/(Pixel*Frame)                       : 0.304
Stream size                              : 4.71 GiB (68%)
Title                                    : Main Program
Writing library                          : x264 core 157 r2935 545de2f
Encoding settings                        : cabac=0 / ref=3 / deblock=1:-3:-3 / analyse=0x3:0x113 / me=umh / subme=9 / psy=1 / psyrd=1.00:0.15 / mixedref=1 / merange=32 / chromame=1 / trellis=0 / 8x8dct=1 / cqm=0 / deadzone=21,11 / fastpskip=0 / chromaqpoffset=-2 / threads=17 / lookaheadthreads=1 / slicedthreads=0 / nr=0 / decimate=0 / interlaced=0 / bluraycompat=0 / constrainedintra=0 / bframes=3 / bpyramid=0 / badapt=2 / bbias=0 / direct=1 / weightb=0 / opengop=0 / weightp=0 / keyint=240 / keyintmin=24 / scenecut=40 / intrarefresh=0 / rclookahead=40 / rc=2pass / mbtree=1 / bitrate=5000 / ratetol=1.0 / qcomp=0.65 / qpmin=0 / qpmax=69 / qpstep=4 / cplxblur=20.0 / qblur=0.5 / vbvmaxrate=9500 / vbvbufsize=9500 / nalhrd=none / filler=0 / ipratio=1.40 / aq=1:1.10
Language                                 : English
Encoded date                             : UTC 2020-03-08 22:27:13
Tagged date                              : UTC 2020-03-08 22:27:21
Color range                              : Limited
Color primaries                          : BT.709
Transfer characteristics                 : BT.709
Matrix coefficients                      : BT.709
Menus                                    : 12,13
Codec configuration box                  : avcC

Video #2
ID                                       : 13
Format                                   : JPEG
Codec ID                                 : jpeg
Duration                                 : 2h 15mn
Bit rate mode                            : Variable
Bit rate                                 : 517 bps
Width                                    : 640 pixels
Height                                   : 268 pixels
Display aspect ratio                     : 2.40:1
Frame rate mode                          : Variable
Frame rate                               : 0.002 fps
Minimum frame rate                       : 0.001 fps
Maximum frame rate                       : 0.004 fps
Color space                              : YUV
Chroma subsampling                       : 4:2:0
Bit depth                                : 8 bits
Compression mode                         : Lossy
Bits/(Pixel*Frame)                       : 1.507
Stream size                              : 504 KiB (0%)
Title                                    : Chapter Images
Language                                 : English
Default                                  : No
Encoded date                             : UTC 2020-03-08 22:27:56
Tagged date                              : UTC 2020-03-08 22:27:56
Menu For                                 : 1
ColorSpace_ICC                           : RGB

Audio #1
ID                                       : 2
Format                                   : AAC LC
Format/Info                              : Advanced Audio Codec Low Complexity
Codec ID                                 : mp4a-40-2
Duration                                 : 2h 15mn
Source duration                          : 2h 15mn
Bit rate mode                            : Variable
Bit rate                                 : 155 Kbps
Maximum bit rate                         : 241 Kbps
Channel(s)                               : 2 channels
Channel layout                           : L R
Sampling rate                            : 48.0 KHz
Frame rate                               : 46.875 fps (1024 SPF)
Compression mode                         : Lossy
Stream size                              : 151 MiB (2%)
Source stream size                       : 151 MiB (2%)
Title                                    : Russian Dub Stereo
Language                                 : Russian
Default                                  : Yes
Alternate group                          : 1
Encoded date                             : UTC 2020-03-08 22:27:13
Tagged date                              : UTC 2020-03-08 22:27:52
Fallback From                            : 5
Subsrcs                                : 8,9

Audio #2
ID                                       : 3
Format                                   : AAC LC
Format/Info                              : Advanced Audio Codec Low Complexity
Codec ID                                 : mp4a-40-2
Duration                                 : 2h 15mn
Source duration                          : 2h 15mn
Bit rate mode                            : Variable
Bit rate                                 : 156 Kbps
Maximum bit rate                         : 244 Kbps
Channel(s)                               : 2 channels
Channel layout                           : L R
Sampling rate                            : 48.0 KHz
Frame rate                               : 46.875 fps (1024 SPF)
Compression mode                         : Lossy
Stream size                              : 151 MiB (2%)
Source stream size                       : 151 MiB (2%)
Title                                    : Russian AVO Stereo
Language                                 : Russian
Default                                  : No
Alternate group                          : 1
Encoded date                             : UTC 2020-03-08 22:27:13
Tagged date                              : UTC 2020-03-08 22:27:52
Fallback From                            : 6
Subsrcs                                : 8,9

Audio #3
ID                                       : 4
Format                                   : AAC LC
Format/Info                              : Advanced Audio Codec Low Complexity
Codec ID                                 : mp4a-40-2
Duration                                 : 2h 15mn
Source duration                          : 2h 15mn
Bit rate mode                            : Variable
Bit rate                                 : 156 Kbps
Maximum bit rate                         : 247 Kbps
Channel(s)                               : 2 channels
Channel layout                           : L R
Sampling rate                            : 48.0 KHz
Frame rate                               : 46.875 fps (1024 SPF)
Compression mode                         : Lossy
Stream size                              : 151 MiB (2%)
Source stream size                       : 151 MiB (2%)
Title                                    : English Stereo
Language                                 : English
Default                                  : No
Alternate group                          : 1
Encoded date                             : UTC 2020-03-08 22:27:13
Tagged date                              : UTC 2020-03-08 22:27:52
Fallback From                            : 7

Audio #4
ID                                       : 5
Format                                   : AC-3
Format/Info                              : Audio Coding 3
Commercial name                          : Dolby Digital
Codec ID                                 : ac-3
Duration                                 : 2h 15mn
Bit rate mode                            : Constant
Bit rate                                 : 640 Kbps
Channel(s)                               : 6 channels
Channel layout                           : L R C LFE Ls Rs
Sampling rate                            : 48.0 KHz
Frame rate                               : 31.250 fps (1536 SPF)
Compression mode                         : Lossy
Stream size                              : 622 MiB (9%)
Title                                    : Russian DD 5.1 Dub
Language                                 : Russian
Service kind                             : Complete Main
Default                                  : Inherited From: 2
Alternate group                          : 1
Encoded date                             : UTC 2020-03-08 22:27:13
Tagged date                              : UTC 2020-03-08 22:27:52
Fallback To                              : 2
Subsrcs                                : 8,9

Audio #5
ID                                       : 6
Format                                   : AC-3
Format/Info                              : Audio Coding 3
Commercial name                          : Dolby Digital
Codec ID                                 : ac-3
Duration                                 : 2h 15mn
Bit rate mode                            : Constant
Bit rate                                 : 640 Kbps
Channel(s)                               : 6 channels
Channel layout                           : L R C LFE Ls Rs
Sampling rate                            : 48.0 KHz
Frame rate                               : 31.250 fps (1536 SPF)
Compression mode                         : Lossy
Stream size                              : 619 MiB (9%)
Title                                    : Russian DD 5.1 AVO
Language                                 : Russian
Service kind                             : Complete Main
Default                                  : No
Alternate group                          : 1
Encoded date                             : UTC 2020-03-08 22:27:13
Tagged date                              : UTC 2020-03-08 22:27:52
Fallback To                              : 3
Subsrcs                                : 8,9

Audio #6
ID                                       : 7
Format                                   : AC-3
Format/Info                              : Audio Coding 3
Commercial name                          : Dolby Digital
Codec ID                                 : ac-3
Duration                                 : 2h 15mn
Bit rate mode                            : Constant
Bit rate                                 : 640 Kbps
Channel(s)                               : 6 channels
Channel layout                           : L R C LFE Ls Rs
Sampling rate                            : 48.0 KHz
Frame rate                               : 31.250 fps (1536 SPF)
Compression mode                         : Lossy
Stream size                              : 619 MiB (9%)
Title                                    : English DD 5.1
Language                                 : English
Service kind                             : Complete Main
Default                                  : No
Alternate group                          : 1
Encoded date                             : UTC 2020-03-08 22:27:13
Tagged date                              : UTC 2020-03-08 22:27:52
Fallback To                              : 4

Text #1
ID                                       : 8
Format                                   : Timed Text
Muxing mode                              : sbtl
Codec ID                                 : tx3g
Duration                                 : 2h 14mn
Bit rate mode                            : Variable
Bit rate                                 : 3 bps
Stream size                              : 2.58 KiB (0%)
Title                                    : Russian forced
Language                                 : Russian
Default                                  : Yes
Forced                                   : Yes
Alternate group                          : 2
Encoded date                             : UTC 2020-03-08 22:27:13
Tagged date                              : UTC 2020-03-08 22:27:46
Subsrcs For                            : 2,3,5,6
Full Alternative                         : 9

Text #2
ID                                       : 9
Format                                   : Timed Text
Muxing mode                              : sbtl
Codec ID                                 : tx3g
Duration                                 : 2h 14mn
Bit rate mode                            : Variable
Bit rate                                 : 145 bps
Stream size                              : 143 KiB (0%)
Title                                    : Russian full
Language                                 : Russian
Default                                  : No
Forced                                   : No
Alternate group                          : 2
Encoded date                             : UTC 2020-03-08 22:27:13
Tagged date                              : UTC 2020-03-08 22:27:51
Subsrcs For                            : 2,3,5,6
Forced Alternative                       : 8

Text #3
ID                                       : 10
Format                                   : Timed Text
Muxing mode                              : sbtl
Codec ID                                 : tx3g
Duration                                 : 2h 13mn
Bit rate mode                            : Variable
Bit rate                                 : 118 bps
Stream size                              : 116 KiB (0%)
Title                                    : English full
Language                                 : English
Default                                  : No
Forced                                   : No
Alternate group                          : 2
Encoded date                             : UTC 2020-03-08 22:27:13
Tagged date                              : UTC 2020-03-08 22:27:52

Text #4
ID                                       : 11
Format                                   : Timed Text
Muxing mode                              : sbtl
Codec ID                                 : tx3g
Duration                                 : 2h 14mn
Bit rate mode                            : Variable
Bit rate                                 : 128 bps
Stream size                              : 126 KiB (0%)
Title                                    : English SDH
Language                                 : English
Default                                  : No
Forced                                   : No
Alternate group                          : 2
Encoded date                             : UTC 2020-03-08 22:27:13
Tagged date                              : UTC 2020-03-08 22:27:52

Menu #1
00:00:00.000                             : Глава 01
00:08:37.475                             : Глава 02
00:18:26.605                             : Глава 03
00:23:23.277                             : Глава 04
00:31:56.123                             : Глава 05
00:36:06.039                             : Глава 06
00:43:14.342                             : Глава 07
00:51:10.234                             : Глава 08
00:57:30.363                             : Глава 09
01:03:09.035                             : Глава 10
01:11:49.430                             : Глава 11
01:21:41.939                             : Глава 12
01:31:03.291                             : Глава 13
01:42:45.492                             : Глава 14
01:49:37.112                             : Глава 15
02:00:15.333                             : Глава 16

Menu #2
ID                                       : 12
Codec ID                                 : text
Duration                                 : 2h 15mn
Language                                 : English
Encoded date                             : UTC 2020-03-08 22:27:52
Tagged date                              : UTC 2020-03-08 22:27:52
Bit rate mode                            : CBR
Menu For                                 : 1
00:00:00.000                             : Глава 01
00:08:37.475                             : Глава 02
00:18:26.605                             : Глава 03
00:23:23.277                             : Глава 04
00:31:56.123                             : Глава 05
00:36:06.039                             : Глава 06
00:43:14.342                             : Глава 07
00:51:10.234                             : Глава 08
00:57:30.363                             : Глава 09
01:03:09.035                             : Глава 10
01:11:49.430                             : Глава 11
01:21:41.939                             : Глава 12
01:31:03.291                             : Глава 13
01:42:45.492                             : Глава 14
01:49:37.112                             : Глава 15
02:00:15.333                             : Глава 16
Bit rate mode                            : Constant

x264 лог

Код:

x264 [info]: frame I:1721  Avg QP:17.50  size: 96894
x264 [info]: frame P:68326 Avg QP:19.88  size: 38946
x264 [info]: frame B:124354 Avg QP:21.26  size: 17961
x264 [info]: consecutive B-frames:  3.2% 21.4% 39.6% 35.8%
x264 [info]: mb I  I16..4:  7.2% 63.9% 28.9%
x264 [info]: mb P  I16..4:  2.4%  9.1%  3.0%  P16..4: 45.8% 24.8% 11.1%  0.0%  0.0%    skip: 3.9%
x264 [info]: mb B  I16..4:  0.2%  1.9%  0.4%  B16..8: 51.2% 11.9%  2.6%  direct: 7.3%  skip:24.5%  L0:42.8% L1:50.3% BI: 7.0%
x264 [info]: 8x8 transform intra:65.8% inter:45.1%
x264 [info]: coded y,uvDC,uvAC intra: 85.5% 82.5% 62.0% inter: 37.4% 29.2% 12.8%
x264 [info]: i16 v,h,dc,p: 53% 12%  8% 27%
x264 [info]: i8 v,h,dc,ddl,ddr,vr,hd,vl,hu: 11%  6%  6% 12% 16% 15% 14% 11% 10%
x264 [info]: i4 v,h,dc,ddl,ddr,vr,hd,vl,hu: 11%  6%  3% 13% 17% 16% 14% 11%  9%
x264 [info]: i8c dc,h,v,p: 52% 16% 19% 14%
x264 [info]: ref P L0: 68.9% 18.4% 12.7%
x264 [info]: ref B L0: 77.2% 22.8%
x264 [info]: kb/s:4993.79

Скриншоты

image image image image image image


imageimageimageimage
Релиз подготовлен для просмотра на Apple TV, iPad, iPhone, iPod Touch.
Для просмотра данного релиза на компьютере с ОС Windows рекомендуется использовать VLC media player


More at ibit.to
And ibit.uno
And ibit.am
And ibit.ws

Comments

Files

Uncut.Gems.BDRip.720p.HD.m4v 7.5 GB

Stream

Downloading Seeding Uncut.Gems.BDRip.720p.HD.m4v from to 0 peers.
of
0 b/s / ↗0 b/s