• 80
  • 36
  • done
Download
  • Tina Turner - Private Dancer (1984) (PBTHAL LP 24-96) [FLAC] vtwin88cube
  • 860 MB
  • vtwin88cube
  • Tina Turner Private Dancer 1984 PBTHAL FLAC vtwin88cube
  • Unknown/NA
  • FLAC

Description

**Tina Turner

Private Dancer (1984)

FLAC LOSSLESS 24bit-96kHz

Promo PBTHAL Vinyl Rip

allmusic.com...

In 1984, a 45-year-old Tina Turner made one of the most amazing comebacks in the history of American popular music. A few years earlier, it was hard to imagine the veteran soul/rock belter reinventing herself and returning to the top of the pop charts, but she did exactly that with the outstanding Private Dancer. And Turner did so without sacrificing her musical integrity. To be sure, this pop/rock/R&B pearl is decidedly slicker than such raw, earthy, hard-edged Ike & Tina classics as "Proud Mary," "Sexy Ida," and "I Wanna Take You Higher." But she still has a tough, throaty, passionate delivery that serves her beautifully on everything.

foobar2000 1.4.3 / Dynamic Range Meter 1.1.1

log date: 2020-12-06 15:46:15


Analyzed: Tina Turner / Private Dancer


DR         Peak         RMS     Duration Track


DR12      -1.73 dB   -15.22 dB      4:10 01-I Might Have Been Queen (Soul Survivor)

DR12      -1.76 dB   -15.94 dB      3:50 02-What's Love Got To Do With It

DR13      -1.88 dB   -16.90 dB      3:19 03-Show Some Respect

DR12      -3.07 dB   -18.18 dB      3:44 04-I Can't Stand The Rain

DR12      -1.00 dB   -16.47 dB      5:13 05-Better Be Good To Me

DR11      -3.75 dB   -17.00 dB      5:17 06-Let's Stay Together

DR12      -3.79 dB   -18.46 dB      3:11 07-1984

DR12      -1.02 dB   -14.81 dB      3:50 08-Steel Claw

DR14      -1.00 dB   -19.22 dB      7:15 09-Private Dancer

Number of tracks:  9

Official DR value: DR12

Samplerate:        96000 Hz

Channels:          2

Bits per sample:   24

Bitrate:           2815 kbps

Codec:             FLAC

Transmitting at 1 Billion Watts!

Heard in 195 countries

88 Torrents Rock!

Thanks for Seeding!

Cheers! ;)**


More at ibit.to
And ibit.uno
And ibit.am
And ibit.ws

Comments

Files

00.-Tina Turner - Private Dancer.m3u 273 B
01.-I Might Have Been Queen (Soul Survivor).flac 95 MB
02.-What's Love Got To Do With It.flac 80 MB
03.-Show Some Respect.flac 72 MB
04.-I Can't Stand The Rain.flac 78 MB
05.-Better Be Good To Me.flac 117 MB
06.-Let's Stay Together.flac 112 MB
07.-1984.flac 70 MB
08.-Steel Claw.flac 88 MB
09.-Private Dancer.flac 146 MB
DR12.txt 1.3 kB
folder.jpg 226 kB
lineage.txt 563 B

Stream

Downloading Seeding Tina Turner - Private Dancer (1984) (PBTHAL LP 24-96) [FLAC] vtwin88cube from to 0 peers.
of
0 b/s / ↗0 b/s