Warning! Use a VPN When Downloading Torrents!
Your IP Address is . Location
Your Internet Provider can see when you download torrents! Hide your IP Address with a VPN
ibit warns: You must use Trust.Zone VPN to hide your torrenting. It's FREE HIDE ME NOW

  • 2
  • 0
  • 60
  • done
ondemand_video
  • The.Walking.Dead.S09E12.WEB-DL.XviD.B4ND1T69
  • 462 MB
  • B4ND1T69
  • Walking Dead S09E12 WEB XviD B4ND1T69
  • English
  • Divx/Xvid
67%

The Walking Dead: Guardians(2019)

  • 9 12
  • Action & Adventure Drama Sci-Fi & Fantasy
  • While one community struggles to ease tensions that threaten to divide from within, the true nature of another group comes into focus; a mission to rescue a friend has deadly consequences.

    expand_more
    English

    Description

    The.Walking.Dead.S09E12.WEB-DL.XviD.B4ND1T69

    image

    **Creators: Frank Darabont, Angela Kang

    Stars: Andrew Lincoln, Norman Reedus, Melissa McBride

    Plot/Story:

    Guardians

    While one community struggles to ease tensions that threaten to divide from within, the true nature of another group comes into focus; a mission to rescue a friend has deadly consequences.

    General

    Complete name : The.Walking.Dead.S09E12.WEB-DL.XviD.B4ND1T69.avi

    Format : AVI

    Format/Info : Audio Video Interleave

    File size : 462 MiB

    Duration : 45 min 3 s

    Overall bit rate : 1 435 kb/s

    Subtitles : Yes...Included(HI)

    Video

    ID : 0

    Format : MPEG-4 Visual

    Format profile : Advanced [email protected]
    Format settings, BVOP : 2

    Format settings, QPel : No

    Format settings, GMC : No warppoints

    Format settings, Matrix : Default (H.263)

    Codec ID : XVID

    Codec ID/Hint : XviD

    Duration : 45 min 3 s

    Bit rate : 1 293 kb/s

    Width : 640 pixels

    Height : 360 pixels

    Display aspect ratio : 16:9

    Frame rate : 23.976 (24000/1001) FPS

    Color space : YUV

    Chroma subsampling : 4:2:0

    Bit depth : 8 bits

    Scan type : Progressive

    Compression mode : Lossy

    Bits/(Pixel*Frame) : 0.234

    Stream size : 417 MiB (90%)

    Writing library : XviD 64

    Audio

    ID : 1

    Format : MPEG Audio

    Format version : Version 1

    Format profile : Layer 3

    Codec ID : 55

    Codec ID/Hint : MP3

    Duration : 45 min 3 s

    Bit rate mode : Constant

    Bit rate : 128 kb/s

    Channel(s) : 2 channels

    Sampling rate : 48.0 kHz

    Compression mode : Lossy

    Stream size : 41.2 MiB (9%)

    Alignment : Aligned on interleaves

    Interleave, duration : 24 ms (0.58 video frame)

    Screenshots:**
    image
    image
    image
    image
    image
    **
    Please Seed For As Long As Possible

    Or At Least 1:1 Ratio...Thanks

    Enjoy Peeps**


    More at ibit.to
    And ibit.uno
    And ibit.am
    And ibit.ws

    Reviews

    Not bad for a horror/drama. If you're obsessed with zombie lore and the idea of watching the long-term effects spanning years at a time on an entire cast of characters, then this show is for you. There are a lot of scary parts with zombies eating and the gore and visual effects are award winning, but the show is mostly how people get along with each other during an apocalyptic setting and how they rebuild civilization or just live moment to moment.

    Zombie stories and fighting zombies always meant something.Suspans,thriller,horror scenes are exactly what these movies needs.So enjoy watching this!😀

    Seasons 1 to 4 were great. It's all downhil from there on - because - you guessed it - diversity and political corectness. In a zombie movie! HAH! Don't watch this.

    _The Walking Dead_ is one of those shows you just can't help but love! A terrifying story of human survival in an apocalyptic world. The show deals with love, loss, zombies (called 'walkers' on the show), death, destruction and zombies! Andrew Lincoln, Norman Reedus, Melissa McBride and Lauren Cohan are amongst the star studded cast who deliver **OUTSTANDING** performances in every episode. _The Walking Dead_ is consistently thrilling and emotionally resonant, with solid character development and enough blood-splattering gore to satisfy anyone! The comic book counterpart has a big influence on the show, so fans of the comic love it too. Each season gives enough compelling character moments to reward longtime fans, while maintaining the back-breaking tension and suspense that keeps audiences watching again and again. _The Walking Dead_ puts an intelligent spin on the overcrowded zombie subgenre, and each season demonstrates why it's one of the best horror shows on television.

    The walking Dead is in once sense a metaphor for whats happened to this once great show. The originality of the first few seasons has gradually given way to a repetitiousness that tells me the show might still be shuffling along but its long since dead. The departure of Andrew Lincoln was a sign that things had come full circle and I had thought they would wind it up which, in my view, would have been the sensible thing to do. Still watching but only because I want to see where it ends. If indeed it ends. Moderately watchable. 6/10 from me.

    unique! perfect show, and more if you focus on the psycologie and sociologie side! in constant evoluion... even if after season 4 or 6 we can see deterioration with the quality and building storyline; we can enjoy a clear amelioration for the best in the 8th season opening our mind to a new vision of the series ! it"s a free adaptation from a popular american comic! and it"s a pleasure to see this worl in black mirors ;)

    I used to love this TV show. First few seasons were great. It was exactly about zombies, but later (after Governor era) they turned one of my favorite TV shows into cheap, boring action series. It's so prolonged, that it became soap opera. It's time to end this jumbled mess. Please end it already and liberate us from this boredom.

    Comments

    Files

    1337x text file.txt 100 B
    KAT text file.txt 100 B
    The.Walking.Dead.S09E12.WEB-DL.XviD.B4ND1T69.srt 44 kB
    The.Walking.Dead.S09E12.WEB-DL.XviD.B4ND1T69.avi 462 MB
    The.Walking.Dead.S09E12.WEBDL.XviD.B4ND1T69 -
    The.Walking.Dead.S09E12.WEBDL.XviD.B4ND1T69.srt 44 kB
    The.Walking.Dead.S09E12.WEBDL.XviD.B4ND1T69.avi 462 MB

    Stream

    Downloading Seeding The.Walking.Dead.S09E12.WEB-DL.XviD.B4ND1T69 from to 0 peers.
    of
    0 b/s / ↗0 b/s