Warning! Use a VPN When Downloading Torrents!
Your IP Address is . Location
Your Internet Provider can see when you download torrents! Hide your IP Address with a VPN
ibit warns: You must use Trust.Zone VPN to hide your torrenting. It's FREE HIDE ME NOW

  • 1
  • 0
ondemand_video
67%

The Walking Dead: Guardians(2019)

  • 9 12
  • Action & Adventure Drama Sci-Fi & Fantasy
  • While one community struggles to ease tensions that threaten to divide from within, the true nature of another group comes into focus; a mission to rescue a friend has deadly consequences.

    expand_more
    English

    Description

    imageimage

    imageimage

    imageimageimageimage

    Media Information

    Unique ID                                : 21951464827830323488804637858416615153 (0x1083B2C6A3E0EDDE0B745338EC40DEF1)

    Complete name                            : The Walking Dead S09E12 Guardians REPACK 1080p Webrip x265 EAC3 5.1 Goki [SEV].mkv

    Format                                   : Matroska

    Format version                           : Version 4

    File size                                : 2.09 GiB

    Duration                                 : 44 min 25 s

    Overall bit rate                         : 6 721 kb/s

    Movie name                               : The Walking Dead S09E12 Guardians REPACK 1080p Webrip x265 EAC3 5.1 Goki [SEV]

    Encoded date                             : UTC 2019-03-07 09:30:38

    Writing application                      : mkvmerge v28.2.0 ('The Awakening') 64-bit

    Writing library                          : libebml v1.3.6 + libmatroska v1.4.9 / Lavf57.73.100

    Writing application                      : Internet Friendly Media Encoder v7.7 ('Prism Ark')

    Writing library                          : IFME v7.7 amd64 windows

    Video

    ID                                       : 1

    Format                                   : HEVC

    Format/Info                              : High Efficiency Video Coding

    Format profile                           : Main [email protected]@Main

    Codec ID                                 : V_MPEGH/ISO/HEVC

    Duration                                 : 44 min 25 s

    Bit rate                                 : 6 079 kb/s

    Width                                    : 1 920 pixels

    Height                                   : 1 080 pixels

    Display aspect ratio                     : 16:9

    Frame rate mode                          : Constant

    Frame rate                               : 23.976 (24000/1001) FPS

    Color space                              : YUV

    Chroma subsampling                       : 4:2:0

    Bit depth                                : 10 bits

    Bits/(Pixel*Frame)                       : 0.122

    Stream size                              : 1.89 GiB (90%)

    Writing library                          : x265 2.9+8-27d8424c799d:[Windows][MSVC 1915][64 bit] 10bit

    Encoding settings                        : cpuid=1111039 / frame-threads=3 / numa-pools=8 / wpp / no-pmode / no-pme / no-psnr / no-ssim / log-level=2 / input-csp=1 / input-res=1920x1080 / interlace=0 / total-frames=0 / level-idc=0 / high-tier=1 / uhd-bd=0 / ref=4 / no-allow-non-conformance / no-repeat-headers / annexb / no-aud / no-hrd / info / hash=0 / no-temporal-layers / open-gop / min-keyint=23 / keyint=250 / gop-lookahead=0 / bframes=8 / b-adapt=2 / b-pyramid / bframe-bias=0 / rc-lookahead=100 / lookahead-slices=4 / scenecut=40 / radl=0 / no-intra-refresh / ctu=64 / min-cu-size=8 / no-rect / no-amp / max-tu-size=32 / tu-inter-depth=1 / tu-intra-depth=1 / limit-tu=0 / rdoq-level=2 / dynamic-rd=0.00 / no-ssim-rd / signhide / no-tskip / nr-intra=0 / nr-inter=0 / no-constrained-intra / no-strong-intra-smoothing / max-merge=3 / limit-refs=3 / limit-modes / me=3 / subme=5 / merange=57 / temporal-mvp / weightp / no-weightb / no-analyze-src-pics / deblock=0:0 / sao / no-sao-non-deblock / rd=4 / no-early-skip / rskip / no-fast-intra / no-tskip-fast / no-cu-lossless / no-b-intra / no-splitrd-skip / rdpenalty=0 / psy-rd=1.30 / psy-rdoq=2.00 / no-rd-refine / no-lossless / cbqpoffs=0 / crqpoffs=0 / rc=crf / crf=21.0 / qcomp=0.60 / qpstep=4 / stats-write=0 / stats-read=0 / ipratio=1.40 / pbratio=1.30 / aq-mode=2 / aq-strength=1.10 / cutree / zone-count=0 / no-strict-cbr / qg-size=32 / no-rc-grain / qpmax=69 / qpmin=0 / no-const-vbv / sar=1 / overscan=0 / videoformat=5 / range=0 / colorprim=2 / transfer=2 / colormatrix=2 / chromaloc=0 / display-window=0 / max-cll=0,0 / min-luma=0 / max-luma=1023 / log2-max-poc-lsb=8 / vui-timing-info / vui-hrd-info / slices=1 / no-opt-qp-pps / no-opt-ref-list-length-pps / no-multi-pass-opt-rps / scenecut-bias=0.05 / no-opt-cu-delta-qp / no-aq-motion / no-hdr / no-hdr-opt / no-dhdr10-opt / no-idr-recovery-sei / analysis-reuse-level=5 / scale-factor=0 / refine-intra=0 / refine-inter=0 / refine-mv=0 / no-limit-sao / ctu-info=0 / no-lowpass-dct / refine-mv-type=0 / copy-pic=1 / max-ausize-factor=1.0 / no-dynamic-refine / no-single-sei

    Default                                  : Yes

    Forced                                   : No

    Audio

    ID                                       : 2

    Format                                   : E-AC-3

    Format/Info                              : Enhanced AC-3

    Commercial name                          : Dolby Digital Plus

    Codec ID                                 : A_EAC3

    Duration                                 : 44 min 25 s

    Bit rate mode                            : Constant

    Bit rate                                 : 640 kb/s

    Channel(s)                               : 6 channels

    Channel layout                           : L R C LFE Ls Rs

    Sampling rate                            : 48.0 kHz

    Frame rate                               : 31.250 FPS (1536 SPF)

    Compression mode                         : Lossy

    Stream size                              : 203 MiB (10%)

    Language                                 : English

    Service kind                             : Complete Main

    Default                                  : Yes

    Forced                                   : No

    Text #1

    ID                                       : 3

    Format                                   : UTF-8

    Codec ID                                 : S_TEXT/UTF8

    Codec ID/Info                            : UTF-8 Plain Text

    Duration                                 : 43 min 23 s

    Bit rate                                 : 44 b/s

    Count of elements                        : 540

    Stream size                              : 14.2 KiB (0%)

    Language                                 : English

    Default                                  : No

    Forced                                   : No

    Text #2

    ID                                       : 4

    Format                                   : UTF-8

    Codec ID                                 : S_TEXT/UTF8

    Codec ID/Info                            : UTF-8 Plain Text

    Duration                                 : 44 min 13 s

    Bit rate                                 : 49 b/s

    Count of elements                        : 708

    Stream size                              : 15.9 KiB (0%)

    Language                                 : English

    Default                                  : No

    Forced                                   : No

    Menu #1

    00:00:00.000                             : en:Studio Logo

    00:00:07.000                             : en:Alpha grills Lydia for information

    00:02:32.000                             : en:Opening Credits

    00:03:16.000                             : en:Veto power

    00:07:26.000                             : en:Rosita asks Gabriel for information

    00:09:52.000                             : en:Where there's one, there's more

    00:13:04.000                             : en:Eugene helps Gabriel

    00:16:20.000                             : en:Words are just air, nothing more

    00:19:51.000                             : en:Negan tries to reason with Michonne

    00:23:31.000                             : en:Connie and Daryl pick up the trail

    00:25:05.000                             : en:The title of Alpha

    00:30:53.000                             : en:People change

    00:33:25.000                             : en:Alpha and Beta talk about the challengers

    00:37:25.000                             : en:Michonne talks to Aaron about the fair

    00:40:43.000                             : en:Lydia makes a choice

    00:43:48.000                             : en:End Credits

    Source

    AMZN CasStudio

    .........................................................................................................................................

    We have no issue with individuals posting or re-uploading our torrents on a platform we aren't on. However, if this is something you'd like to do, please do so in a 'as-is' format. We ask that you do not create a new torrent, include all descriptions you see above including the SEV logo, tags, notes and screenshots. If you'd like to become a permanent poster on a website we don't post to, feel free to get in contact with a Sublime Encoded Video member.

    **We are recruiting/training new members for SEV & seedbox providers as well as people to help out with subtitles.

    As you already know, we deliver quality, so you know the standard.

    If you're interested, feel free to contact any of the team members.**


    More at ibit.to
    And ibit.uno
    And ibit.am
    And ibit.ws

    Reviews

    Not bad for a horror/drama. If you're obsessed with zombie lore and the idea of watching the long-term effects spanning years at a time on an entire cast of characters, then this show is for you. There are a lot of scary parts with zombies eating and the gore and visual effects are award winning, but the show is mostly how people get along with each other during an apocalyptic setting and how they rebuild civilization or just live moment to moment.

    Zombie stories and fighting zombies always meant something.Suspans,thriller,horror scenes are exactly what these movies needs.So enjoy watching this!😀

    Seasons 1 to 4 were great. It's all downhil from there on - because - you guessed it - diversity and political corectness. In a zombie movie! HAH! Don't watch this.

    _The Walking Dead_ is one of those shows you just can't help but love! A terrifying story of human survival in an apocalyptic world. The show deals with love, loss, zombies (called 'walkers' on the show), death, destruction and zombies! Andrew Lincoln, Norman Reedus, Melissa McBride and Lauren Cohan are amongst the star studded cast who deliver **OUTSTANDING** performances in every episode. _The Walking Dead_ is consistently thrilling and emotionally resonant, with solid character development and enough blood-splattering gore to satisfy anyone! The comic book counterpart has a big influence on the show, so fans of the comic love it too. Each season gives enough compelling character moments to reward longtime fans, while maintaining the back-breaking tension and suspense that keeps audiences watching again and again. _The Walking Dead_ puts an intelligent spin on the overcrowded zombie subgenre, and each season demonstrates why it's one of the best horror shows on television.

    The walking Dead is in once sense a metaphor for whats happened to this once great show. The originality of the first few seasons has gradually given way to a repetitiousness that tells me the show might still be shuffling along but its long since dead. The departure of Andrew Lincoln was a sign that things had come full circle and I had thought they would wind it up which, in my view, would have been the sensible thing to do. Still watching but only because I want to see where it ends. If indeed it ends. Moderately watchable. 6/10 from me.

    unique! perfect show, and more if you focus on the psycologie and sociologie side! in constant evoluion... even if after season 4 or 6 we can see deterioration with the quality and building storyline; we can enjoy a clear amelioration for the best in the 8th season opening our mind to a new vision of the series ! it"s a free adaptation from a popular american comic! and it"s a pleasure to see this worl in black mirors ;)

    I used to love this TV show. First few seasons were great. It was exactly about zombies, but later (after Governor era) they turned one of my favorite TV shows into cheap, boring action series. It's so prolonged, that it became soap opera. It's time to end this jumbled mess. Please end it already and liberate us from this boredom.

    Comments

    Files

    The Walking Dead S09E12 Guardians REPACK 1080p Webrip x265 EAC3 5.1 Goki [SEV].mkv 2.1 GB

    Stream

    Downloading Seeding The Walking Dead S09E12 Guardians REPACK 1080p Webrip x265 EAC3 5.1 Goki [SEV].mkv from to 0 peers.
    of
    0 b/s / ↗0 b/s