• 0
  • 1
  • done
Downloadondemand_video
  • The Kid Who Would Be King (2019) x 1600 (2160p) HDR 5.1 x265 10bit Phun Psyz.mkv
  • 2.9 GB
  • phunpsyz
  • Kid King 2019 1600 2160p HDR x265 10bit Phun Psyz mkv
  • English
  • UltraHD/4K
61%

The Kid Who Would Be King (2019)

  • Action Adventure Fantasy Family
  • Old-school magic meets the modern world when young Alex stumbles upon the mythical sword Excalibur. He soon unites his friends and enemies, and they become knights who join forces with the legendary wizard Merlin. Together, they must save mankind from the wicked enchantress Morgana and her army of supernatural warriors.

    expand_more
    English
  • $59,000,000
  • Description

    www.imdb.com/title/tt6811018/

    A band of kids embark on an epic quest to thwart a medieval menace.

    Source: FGT 4K HDR Remux

    image

    image

    image

    image

    image

    Format                      : Matroska

    Format version              : Version 4

    File size                   : 2.90 GiB

    Duration                    : 2 h 0 min

    Overall bit rate            : 3 454 kb/s

    Writing application         : HandBrake 1.2.0 2018121700

    Video

    ID                          : 1

    Format                      : HEVC

    Format/Info                 : High Efficiency Video Coding

    Format profile              : Main [email protected]@High

    Codec ID                    : V_MPEGH/ISO/HEVC

    Duration                    : 2 h 0 min

    Bit rate                    : 3 065 kb/s

    Width                       : 3 840 pixels

    Height                      : 1 600 pixels

    Display aspect ratio        : 2.40:1

    Frame rate mode             : Constant

    Frame rate                  : 23.976 (24000/1001) FPS

    Color space                 : YUV

    Chroma subsampling          : 4:2:0

    Bit depth                   : 10 bits

    Bits/(Pixel*Frame)          : 0.021

    Stream size                 : 2.57 GiB (89%)

    Writing library             : x265 2.9:[Windows][GCC 7.1.0][64 bit] 10bit

    Color primaries             : BT.2020

    Transfer characteristics    : PQ

    Matrix coefficients         : BT.2020 non-constant

    Audio

    ID                          : 2

    Format                      : AC-3

    Format/Info                 : Audio Coding 3

    Commercial name             : Dolby Digital

    Codec ID                    : A_AC3

    Duration                    : 2 h 0 min

    Bit rate mode               : Constant

    Bit rate                    : 320 kb/s

    Channel(s)                  : 6 channels

    Channel layout              : L R C LFE Ls Rs

    Sampling rate               : 48.0 kHz

    Frame rate                  : 31.250 FPS (1536 SPF)

    Bit depth                   : 16 bits

    Compression mode            : Lossy

    Stream size                 : 275 MiB (9%)

    Title                       : Surround

    Language                    : English

    Text 

    Language                    : English

    Language                    : English

    Language                    : English

    Language                    : Spanish

    Language                    : French

    Default                     : No

    Forced                      : No


    More at ibit.to
    And ibit.uno
    And ibit.am
    And ibit.ws

    Reviews

    Man, I was ready to **absolutely** rail on this movie before I realised that what I had thought was the end was just the end of the second act. Now don't get me wrong, I still very much did not enjoy _The Kid Who Would Be King_, but the actual ending did turn me around on it somewhat. Hard to know for certain if this will play well for actual kids. Maybe they'll even take the positive messages on board and not the bad ones. But I don't know that a good message or a good time will be taken away from _The Kid Who Would Be King_ by children, I doubt it, but it doesn't seem impossible. Very disappointing after _Attack the Block_. _Final rating:★★ - Had some things that appeal to me, but a poor finished product._

    Comments

    Files

    The Kid Who Would Be King (2019) x 1600 (2160p) HDR 5.1 x265 10bit Phun Psyz.mkv 2.9 GB

    Stream

    Downloading Seeding The Kid Who Would Be King (2019) x 1600 (2160p) HDR 5.1 x265 10bit Phun Psyz.mkv from to 0 peers.
    of
    0 b/s / ↗0 b/s