• 12
  • 14
  • done
Downloadondemand_video
  • Pig (2021) [Hindi Dub] 720p WEB-DLRip Saicord.mkv
  • 1.3 GB
  • melbetcinema7
  • Pig 2021 Hindi Dub 720p WEB DLRip Saicord mkv
  • Hindi
  • HD 720p
69%

Pig (2021)

  • Drama Thriller
  • Living alone in the Oregon wilderness, a truffle hunter returns to Portland to find the person who stole his beloved pig and goes on a cat-and-mouse run along the shore.

    expand_more
    English

    Description

    image

    https://www.imdb.com/title/tt11003218

    image

    image

    image

    image

    Video

    ID                                       : 1

    Format                                   : AVC

    Format/Info                              : Advanced Video Codec

    Format profile                           : [email protected]

    Format settings                          : CABAC / 4 Ref Frames

    Format settings, CABAC                   : Yes

    Format settings, Reference frames        : 4 frames

    Codec ID                                 : V_MPEG4/ISO/AVC

    Duration                                 : 1 h 33 min

    Bit rate                                 : 1 823 kb/s

    Width                                    : 1 280 pixels

    Height                                   : 534 pixels

    Display aspect ratio                     : 2.40:1

    Frame rate mode                          : Constant

    Frame rate                               : 23.976 (24000/1001) FPS

    Standard                                 : NTSC

    Color space                              : YUV

    Chroma subsampling                       : 4:2:0

    Bit depth                                : 8 bits

    Scan type                                : Progressive

    Bits/(Pixel*Frame)                       : 0.111

    Stream size                              : 1.19 GiB (90%)

    Language                                 : English

    Default                                  : Yes

    Forced                                   : No

    Color range                              : Limited

    Color primaries                          : BT.601 NTSC

    Transfer characteristics                 : BT.601

    Matrix coefficients                      : BT.601

    Audio

    ID                                       : 2

    Format                                   : AAC LC

    Format/Info                              : Advanced Audio Codec Low Complexity

    Codec ID                                 : A_AAC-2

    Duration                                 : 1 h 33 min

    Bit rate                                 : 192 kb/s

    Channel(s)                               : 2 channels

    Channel layout                           : L R

    Sampling rate                            : 48.0 kHz

    Frame rate                               : 46.875 FPS (1024 SPF)

    Compression mode                         : Lossy

    Stream size                              : 126 MiB (9%)

    Language                                 : Hindi

    Default                                  : Yes

    Forced                                   : No


    More at ibit.to
    And ibit.uno
    And ibit.am
    And ibit.ws

    Reviews

    Not watching trailers has infinite pros. From going into the theater without a visual clue about what's going to be seen on the big screen to the ability to avoid spoilery clips that ruin supposedly surprising moments, this is a methodology I've been strictly employing in my life. So far, I've had nothing but spectacular screenings. Watching a movie completely blind is an experience I recommend to every film lover. This intro serves to explain why I was so impressed by Pig's grounded, action-less, character-driven storytelling. Without watching any trailer, just by reading the synopsis, it's impossible not to expect an absurdly crazy revenge flick starring the one and only Nicolas Cage (Prisoners of the Ghostland). Well, Michael Sarnoski delivers a subversive directorial debut, focusing on the always heavy theme of grief. Cage's character is a retired chef who lost someone he truly loved, and the (adorable) pig is the only living being he can associate with his former lover. Instead of following an action-heavy, bloody path of murder to help deal with his emotional loss like John Wick, Pig draws attention to the protagonist's feelings. It's a wonderfully written character piece, featuring a beautiful score (Alexis Grapsas, Philip Klein), and incredibly captivating, unforgettable dialogues that replace the expected action sequences. Cage offers one of the most nuanced performances of his career, proving he's one of the most talented actors of his generation. It's a shame that most people only recognize him as Hollywood's main source of memes. Alex Wolff (Hereditary) is also outstanding as a young man with father issues, though his character's subplot isn't as interesting as the main narrative, slightly affecting the overall pacing. Despite anticipating several action scenes, the lack thereof didn't result in disappointment but instead in a pleasant surprise. Highly recommend checking this one if you have the chance. Rating: B+

    Comments

    Files

    Pig (2021) [Hindi Dub] 720p WEB-DLRip Saicord.mkv 1.3 GB

    Stream

    Downloading Seeding Pig (2021) [Hindi Dub] 720p WEB-DLRip Saicord.mkv from to 0 peers.
    of
    0 b/s / ↗0 b/s