• -
  • -
  • done
Download
  • Ozzy Osbourne - Ordinary Man (2020) [remastered]
  • 348 MB
  • groovebox
  • Ozzy Osbourne Ordinary Man 2020 remastered
  • Разное (раздачи)

Description

Ozzy Osbourne / Ordinary Man

image

Жанр : Hard Rock

Страна-производитель диска (релиза) : US

Год издания : 2020

Издатель (лейбл) : Epic

Номер по каталогу : n/a

Страна исполнителя (группы) : UK

Аудиокодек : FLAC (*.flac)

Тип рипа : tracks+.cue

Продолжительность : 00:49:21

Источник : CD rip от Andromaxvic

Наличие сканов в содержимом раздачи : front

Треклист :
01. Straight To Hell (3:46)
02. All My Life (4:18)
03. Goodbye (5:34)
04. Ordinary Man (Feat. Elton John) (5:02)
05. Under The Graveyard (4:57)
06. Eat Me (4:19)
07. Today Is The End (4:06)
08. Scary Little Green Men (4:21)
09. Holy For Tonight (4:52)
10. It's A Raid (Feat. Post Malone) (4:21)
11. Take What You Want (Feat. Post Malone & Travi$ Scott) (3:50)

Содержание индексной карты (.CUE)

PERFORMER "Ozzy Osbourne" TITLE "Ordinary Man" REM DATE 2020 REM GENRE "Hard Rock" FILE "01 Straight To Hell.flac" WAVE TRACK 01 AUDIO PERFORMER "Ozzy Osbourne" TITLE "Straight To Hell" INDEX 01 00:00:00 FILE "02 All My Life.flac" WAVE TRACK 02 AUDIO PERFORMER "Ozzy Osbourne" TITLE "All My Life" INDEX 01 00:00:00 FILE "03 Goodbye.flac" WAVE TRACK 03 AUDIO PERFORMER "Ozzy Osbourne" TITLE "Goodbye" INDEX 01 00:00:00 FILE "04 Ordinary Man (Feat. Elton John).flac" WAVE TRACK 04 AUDIO PERFORMER "Ozzy Osbourne" TITLE "Ordinary Man (Feat. Elton John)" INDEX 01 00:00:00 FILE "05 Under The Graveyard.flac" WAVE TRACK 05 AUDIO PERFORMER "Ozzy Osbourne" TITLE "Under The Graveyard" INDEX 01 00:00:00 FILE "06 Eat Me.flac" WAVE TRACK 06 AUDIO PERFORMER "Ozzy Osbourne" TITLE "Eat Me" INDEX 01 00:00:00 FILE "07 Today Is The End.flac" WAVE TRACK 07 AUDIO PERFORMER "Ozzy Osbourne" TITLE "Today Is The End" INDEX 01 00:00:00 FILE "08 Scary Little Green Men.flac" WAVE TRACK 08 AUDIO PERFORMER "Ozzy Osbourne" TITLE "Scary Little Green Men" INDEX 01 00:00:00 FILE "09 Holy For Tonight.flac" WAVE TRACK 09 AUDIO PERFORMER "Ozzy Osbourne" TITLE "Holy For Tonight" INDEX 01 00:00:00 FILE "10 It's A Raid (Feat. Post Malone).flac" WAVE TRACK 10 AUDIO PERFORMER "Ozzy Osbourne" TITLE "It's A Raid (Feat. Post Malone)" INDEX 01 00:00:00 FILE "11 Take What You Want (Feat. Post Malone & Travi$ Scott).flac" WAVE TRACK 11 AUDIO PERFORMER "Ozzy Osbourne" TITLE "Take What You Want (Feat. Post Malone & Travi$ Scott)" INDEX 01 00:00:00

Лог проверки качества

`PERFORMER: auCDtect Task Manager, ver. 1.5.1RC6 build 1.5.1.7
Copyright (c) 2008-2010 y-soft. All rights reserved
http://y-soft.org

ANALYZER: auCDtect: CD records authenticity detector, version 0.8.2
Copyright (c) 2004 Oleg Berngardt. All rights reserved.
Copyright (c) 2004 Alexander Djourik. All rights reserved.

FILE: 11 Take What You Want (Feat. Post Malone & Travi$ Scott).wav
Size: 40534412 Hash: D12182AF93A526F6918571F4BE4AF97C Accuracy: -m0
Conclusion: CDDA 100%
Signature: 6521B50295E775F0FB1687EB1AC9B1C158299020
FILE: 10 It's A Raid (Feat. Post Malone).wav
Size: 45995756 Hash: 0505D00DB342DD199BFE98F09CBE08A8 Accuracy: -m0
Conclusion: CDDA 100%
Signature: 1F8F5262AC2354A9464ADE1A9202967DB4EE97DF
FILE: 09 Holy For Tonight.wav
Size: 51530012 Hash: F1876EE35AD1EA9060CEFAE909804070 Accuracy: -m0
Conclusion: CDDA 100%
Signature: 8AD7B76A271B0A20563E77A150320D3155DA01DD
FILE: 08 Scary Little Green Men.wav
Size: 46033388 Hash: 1DE91786ED5915AFF530C363D5941DED Accuracy: -m0
Conclusion: CDDA 100%
Signature: 5FEA5DC764840F5755F317E79C88251EF372B59C
FILE: 07 Today Is The End.wav
Size: 43469708 Hash: 6B9D464844A336E75DD0F77775AF9B01 Accuracy: -m0
Conclusion: CDDA 100%
Signature: 6099444C665DFFF168EAC9859862F42C8FAA50FD
FILE: 06 Eat Me.wav
Size: 45689996 Hash: 95C1A5ACF4E0B69229275B99FBB92B84 Accuracy: -m0
Conclusion: CDDA 99%
Signature: 08D4677C680B3F65BA6B09A692969D3BBFE6F544
FILE: 05 Under The Graveyard.wav
Size: 52470812 Hash: 3113A94C2CA2056CD1622A450C0CCC19 Accuracy: -m0
Conclusion: CDDA 100%
Signature: 649119FFEB97C53429756B4602C5D6D12EDF3610
FILE: 04 Ordinary Man (Feat. Elton John).wav
Size: 53223452 Hash: F60F401F87FB1B77E94D1A1D26AF24EB Accuracy: -m0
Conclusion: CDDA 100%
Signature: 9B9C5FCADE977B4F7BC9BAAF126B5C39F6CD8126
FILE: 03 Goodbye.wav
Size: 58978796 Hash: A3434FBDD057128675F11E749B5667B9 Accuracy: -m0
Conclusion: CDDA 100%
Signature: 5ED2593323E7FE7737694A7DAD953F99B3379829
FILE: 02 All My Life.wav
Size: 45560636 Hash: 7454561DA5B0EB7E4E077CF7C9420F97 Accuracy: -m0
Conclusion: CDDA 100%
Signature: 7F86F91EAF7F0DF7C7F0C285102CFD8135BD6E20
FILE: 01 Straight To Hell.wav
Size: 39812348 Hash: 73B686BED2910775C7701C3B26E0989B Accuracy: -m0
Conclusion: CDDA 100%
Signature: 310B32942DF06792AA5F74C89E3B98BCA08DDD0E `

Dynamic Range Meter

`foobar2000 1.4 / Dynamic Range Meter 1.1.1
log date: 2020-02-16 23:56:51


Analyzed: Ozzy Osbourne / Ordinary Man
DR Peak RMS Duration Track

DR8 -0.21 dB -9.60 dB 3:46 01-Straight To Hell
DR7 -0.96 dB -10.08 dB 4:18 02-All My Life
DR7 -0.45 dB -8.75 dB 5:34 03-Goodbye
DR8 -0.42 dB -10.87 dB 5:02 04-Ordinary Man (Feat. Elton John)
DR8 -0.67 dB -11.12 dB 4:57 05-Under The Graveyard
DR7 -0.96 dB -10.11 dB 4:19 06-Eat Me
DR7 -1.03 dB -9.96 dB 4:06 07-Today Is The End
DR7 -0.39 dB -10.00 dB 4:21 08-Scary Little Green Men
DR7 -0.70 dB -10.28 dB 4:52 09-Holy For Tonight
DR9 -0.30 dB -10.06 dB 4:21 10-It's A Raid (Feat. Post Malone)

DR7 -3.01 dB -11.98 dB 3:50 11-Take What You Want (Feat. Post Malone & Travi$ Scott)

Number of tracks: 11
Official DR value: DR8

Samplerate: 44100 Hz
Channels: 2
Bits per sample: 16
Bitrate: 856 kbps
Codec: FLAC `

Обработка

Ремастер оригинальной записи. Увеличение полезного динамического диапазона, устранение клиппинга. Малые правки АЧХ (где это требовалось). Оптимальная компрессия для сохранения агрессивного звучания.

Скриншот спектра частот

original

image

image

remastered

image

image

Доп. информация : Ремастер оригинальной записи.

Об исполнителе (группе)

Ozzy

Об альбоме (сборнике)

https://ru.wikipedia.org/wiki/Ordinary_Man

Состав

Ozzy Osbourne – lead vocals
Andrew Watt – guitars, production
Duff McKagan – bass guitar
Chad Smith – drums
Slash – lead guitar (tracks 1, 4)
Tom Morello - Guitar (track 8)
Charlie Puth – keyboards (track 1)[7]
Elton John – piano and co-lead vocals (track 4)
Post Malone – co-lead vocals (track 10, 11)


More at ibit.to
And ibit.uno
And ibit.am
And ibit.ws

Comments

Files

Ozzy Osbourne - Ordinary Man (2020) [remastered]01 Straight To Hell.flac 27 MB
Ozzy Osbourne - Ordinary Man (2020) [remastered]02 All My Life.flac 30 MB
Ozzy Osbourne - Ordinary Man (2020) [remastered]03 Goodbye.flac 40 MB
Ozzy Osbourne - Ordinary Man (2020) [remastered]04 Ordinary Man (Feat. Elton John).flac 33 MB
Ozzy Osbourne - Ordinary Man (2020) [remastered]05 Under The Graveyard.flac 34 MB
Ozzy Osbourne - Ordinary Man (2020) [remastered]06 Eat Me.flac 30 MB
Ozzy Osbourne - Ordinary Man (2020) [remastered]07 Today Is The End.flac 29 MB
Ozzy Osbourne - Ordinary Man (2020) [remastered]08 Scary Little Green Men.flac 28 MB
Ozzy Osbourne - Ordinary Man (2020) [remastered]09 Holy For Tonight.flac 32 MB
Ozzy Osbourne - Ordinary Man (2020) [remastered]10 It's A Raid (Feat. Post Malone).flac 32 MB
Ozzy Osbourne - Ordinary Man (2020) [remastered]11 Take What You Want (Feat. Post Malone & Travi$ Scott).flac 25 MB
Ozzy Osbourne - Ordinary Man (2020) [remastered]Folder.auCDtect.txt 4.9 kB
Ozzy Osbourne - Ordinary Man (2020) [remastered]foo_dr.txt 1.5 kB
Ozzy Osbourne - Ordinary Man (2020) [remastered]front cover 2400.png 7.4 MB
Ozzy Osbourne - Ordinary Man (2020) [remastered]front cover 500.png 449 kB
Ozzy Osbourne - Ordinary Man (2020) [remastered]Ozzy Osbourne - Ordinary Man (2020) [remastered].flac.cue 1.7 kB
Ozzy Osbourne - Ordinary Man (2020) [remastered]Ozzy Osbourne - Ordinary Man (2020) [remastered].wav.cue 1.7 kB

Stream

Downloading Seeding Ozzy Osbourne - Ordinary Man (2020) [remastered] from to 0 peers.
of
0 b/s / ↗0 b/s