• 585
  • 136
  • done
Downloadondemand_video
  • Novogodniy.remont.2019.WEB-DLRip.ExKinoRay.avi
  • 1.5 GB
  • сибиряк777
  • Novogodniy remont 2019 WEB DLRip ExKinoRay avi
  • Наше кино

Description

Новогодний ремонт


image

Жанр : Комедия, мелодрама

Год выпуска : 2019

Продолжительность : 01:22:53


Режиссёр : Артур Пинхасов


В ролях : Зоя Бербер, Сергей Комаров, Артём Осипов, Эрик Бигуля, Вадим Галыгин, Ирина Розанова, Виталия Корниенко, Данил Стеклов, Макар Запорожский, Исмаил Коне


Описание : У Марго есть 24 часа, чтобы сделать ремонт в квартире к приезду дочери и мамы. В попытке найти решение, она случайно отправляет сообщение с просьбой о помощи всем контактам в телефоне. С этого момента дверной звонок звучит непрерывно, а в квартире Риты один за другим появляются старые и новые друзья - русский депутат, учитель-еврей, армянин - владелец ресторана. Последним как снег на голову падает американец с предложением жениться. Все вместе решают: Маргариту в США отпускать нельзя! Пусть это будет непросто, но русские ведь просто так не сдаются...


image image


Качество видео : WEB-DLRip

Формат видео : AVI

Видео : 720x304 (2.35:1), 25.000 fps, XviD build 73, 2158 Kbps

Аудио : 48 kHz, AC3 Dolby Digital, 2 ch, 192 Kbps

MediaInfo

General
Complete name : DownloadsNovogodniy.remont.2019.WEB-DLRip
Format : AVI
Format/Info : Audio Video Interleave
File size : 1.37 GiB
Duration : 1h 22mn
Overall bit rate : 2 360 Kbps
Writing application : VirtualDubMod 1.5.10.3 | www.virtualdub-fr.org || (build 2550/release)
Writing library : VirtualDubMod build 2550/release
Video #0
ID : 0
Format : MPEG-4 Visual
Format profile : Advanced [email protected]
Format settings, BVOP : 1
Format settings, QPel : No
Format settings, GMC : No warppoints
Format settings, Matrix : Custom
Codec ID : XVID
Codec ID/Hint : XviD
Duration : 1h 22mn
Bit rate : 2 158 Kbps
Width : 720 pixels
Height : 304 pixels
Display aspect ratio : 2.35:1
Frame rate : 25.000 fps
Color space : YUV
Chroma subsampling : 4:2:0
Bit depth : 8 bits
Scan type : Progressive
Compression mode : Lossy
Bits/(Pixel*Frame) : 0.394
Stream size : 1.25 GiB (91%)
Writing library : XviD 73
Audio #1
ID : 1
Format : AC-3
Format/Info : Audio Coding 3
Mode extension : CM (complete main)
Format settings, Endianness : Big
Codec ID : 2000
Duration : 1h 22mn
Bit rate mode : Constant
Bit rate : 192 Kbps
Channel(s) : 2 channels
Channel positions : Front: L R
Sampling rate : 48.0 KHz
Bit depth : 16 bits
Compression mode : Lossy
Stream size : 114 MiB (8%)
Alignment : Split accross interleaves
Interleave, duration : 40 ms (1.00 video frame)
Interleave, preload duration : 500 ms

Скриншот c названием фильма

image

Скриншоты

image image image image


More at ibit.to
And ibit.uno
And ibit.am
And ibit.ws

Comments

2 years ago

Про что хоть кино-то? Судя по описанию про толерантную чернильницу, Но вдруг я ошибаюсь и все не так плохо?)

Files

Novogodniy.remont.2019.WEB-DLRip.ExKinoRay.avi 1.5 GB

Stream

Downloading Seeding Novogodniy.remont.2019.WEB-DLRip.ExKinoRay.avi from to 0 peers.
of
0 b/s / ↗0 b/s