• 15
  • 13
  • done
ondemand_video
70%

Miracle Workers: Road Trip(2020)

  • 2 3
  • Comedy
  • Prince Chauncley and Lord Vexler go on a diplomatic mission. A new invention shakes up Eddie's business.

    expand_more
    English

    Description

    image

    image

    image

    Miracle Workers (2019) IMDB

    image

    image

    image

    image

    Media Information

    General

    Complete name                            : Miracle Workers (2019) - S02E03 - Road Trip (1080p AMZN WEB-DL x265 10bit EAC3 5.1 - HxD) [TAoE].mkv

    Format                                   : Matroska

    Format version                           : Version 4

    File size                                : 414 MiB

    Duration                                 : 20 min 16 s

    Overall bit rate                         : 2 853 kb/s

    Movie name                               : Miracle Workers (2019) - S02E03 - Road Trip (1080p AMZN WEB-DL x265 10bit EAC3 5.1 - HxD) [TAoE]

    Encoded date                             : UTC 2020-02-14 15:37:50

    Writing application                      : mkvmerge v40.0.0 ('Old Town Road + Pony') 64-bit

    Writing library                          : libebml v1.3.9 + libmatroska v1.5.2

    Video

    ID                                       : 1

    Format                                   : HEVC

    Format/Info                              : High Efficiency Video Coding

    Format profile                           : Main [email protected]@Main

    Codec ID                                 : V_MPEGH/ISO/HEVC

    Duration                                 : 20 min 16 s

    Bit rate                                 : 2 211 kb/s

    Width                                    : 1 920 pixels

    Height                                   : 1 080 pixels

    Display aspect ratio                     : 16:9

    Frame rate mode                          : Constant

    Frame rate                               : 23.976 (24000/1001) FPS

    Color space                              : YUV

    Chroma subsampling                       : 4:2:0

    Bit depth                                : 10 bits

    Bits/(Pixel*Frame)                       : 0.044

    Stream size                              : 321 MiB (77%)

    Writing library                          : x265 3.2+9-971180b100f8:[Windows][GCC 9.2.0][64 bit] 10bit

    Encoding settings                        : cpuid=1111039 / frame-threads=3 / numa-pools=8 / wpp / no-pmode / no-pme / no-psnr / no-ssim / log-level=2 / input-csp=1 / input-res=1920x1080 / interlace=0 / total-frames=29166 / level-idc=0 / high-tier=1 / uhd-bd=0 / ref=4 / no-allow-non-conformance / no-repeat-headers / annexb / no-aud / no-hrd / info / hash=0 / no-temporal-layers / open-gop / min-keyint=23 / keyint=250 / gop-lookahead=0 / bframes=8 / b-adapt=2 / b-pyramid / bframe-bias=0 / rc-lookahead=80 / lookahead-slices=4 / scenecut=40 / radl=0 / no-splice / no-intra-refresh / ctu=64 / min-cu-size=8 / no-rect / no-amp / max-tu-size=32 / tu-inter-depth=1 / tu-intra-depth=1 / limit-tu=0 / rdoq-level=2 / dynamic-rd=0.00 / no-ssim-rd / signhide / no-tskip / nr-intra=0 / nr-inter=0 / no-constrained-intra / no-strong-intra-smoothing / max-merge=3 / limit-refs=3 / limit-modes / me=3 / subme=5 / merange=57 / temporal-mvp / no-frame-dup / no-hme / weightp / no-weightb / no-analyze-src-pics / deblock=0:0 / sao / no-sao-non-deblock / rd=4 / selective-sao=4 / no-early-skip / rskip / no-fast-intra / no-tskip-fast / no-cu-lossless / no-b-intra / no-splitrd-skip / rdpenalty=0 / psy-rd=1.30 / psy-rdoq=2.00 / no-rd-refine / no-lossless / cbqpoffs=0 / crqpoffs=0 / rc=crf / crf=22.0 / qcomp=0.60 / qpstep=4 / stats-write=0 / stats-read=0 / ipratio=1.40 / pbratio=1.30 / aq-mode=2 / aq-strength=1.10 / cutree / zone-count=0 / no-strict-cbr / qg-size=32 / no-rc-grain / qpmax=69 / qpmin=0 / no-const-vbv / sar=0 / overscan=0 / videoformat=5 / range=0 / colorprim=1 / transfer=1 / colormatrix=1 / chromaloc=0 / display-window=0 / cll=0,0 / min-luma=0 / max-luma=1023 / log2-max-poc-lsb=8 / vui-timing-info / vui-hrd-info / slices=1 / no-opt-qp-pps / no-opt-ref-list-length-pps / no-multi-pass-opt-rps / scenecut-bias=0.05 / no-opt-cu-delta-qp / no-aq-motion / no-hdr / no-hdr-opt / no-dhdr10-opt / no-idr-recovery-sei / analysis-reuse-level=5 / scale-factor=0 / refine-intra=0 / refine-inter=0 / refine-mv=1 / refine-ctu-distortion=0 / no-limit-sao / ctu-info=0 / no-lowpass-dct / refine-analysis-type=0 / copy-pic=1 / max-ausize-factor=1.0 / no-dynamic-refine / no-single-sei / no-hevc-aq / no-svt / no-field / qp-adaptation-range=1.00

    Default                                  : Yes

    Forced                                   : No

    Color range                              : Limited

    Color primaries                          : BT.709

    Transfer characteristics                 : BT.709

    Matrix coefficients                      : BT.709

    Audio

    ID                                       : 2

    Format                                   : E-AC-3

    Format/Info                              : Enhanced AC-3

    Commercial name                          : Dolby Digital Plus

    Codec ID                                 : A_EAC3

    Duration                                 : 20 min 16 s

    Bit rate mode                            : Constant

    Bit rate                                 : 640 kb/s

    Channel(s)                               : 6 channels

    Channel layout                           : L R C LFE Ls Rs

    Sampling rate                            : 48.0 kHz

    Frame rate                               : 31.250 FPS (1536 SPF)

    Compression mode                         : Lossy

    Stream size                              : 92.8 MiB (22%)

    Language                                 : English

    Service kind                             : Complete Main

    Default                                  : Yes

    Forced                                   : No

    Text #1

    ID                                       : 3

    Format                                   : UTF-8

    Codec ID                                 : S_TEXT/UTF8

    Codec ID/Info                            : UTF-8 Plain Text

    Duration                                 : 19 min 40 s

    Bit rate                                 : 82 b/s

    Count of elements                        : 388

    Stream size                              : 11.9 KiB (0%)

    Language                                 : English

    Default                                  : No

    Forced                                   : No

    Text #2

    ID                                       : 4

    Format                                   : UTF-8

    Codec ID                                 : S_TEXT/UTF8

    Codec ID/Info                            : UTF-8 Plain Text

    Duration                                 : 20 min 12 s

    Bit rate                                 : 88 b/s

    Count of elements                        : 452

    Stream size                              : 13.1 KiB (0%)

    Title                                    : SDH

    Language                                 : English

    Default                                  : No

    Forced                                   : No

    Source

    1080p AMZN WEB-DL QOQ

    ** Hello everyone,

    We are TAoE, a small team of passionate encoders who love encoding. We try our best to provide you with high quality releases.

    If you would like to join the team just drop us a comment or send us a message.

    **

    .........................................................................................................................................


    More at ibit.to
    And ibit.uno
    And ibit.am
    And ibit.ws

    Reviews

    Not as good as the cast and concept should be. Wastes Steve Buscemi on a poorly written character. That said, still some light fun worth 30 minutes of your time. 3/5

    okay so lets start by saying i wasnt looking forward to my lord and savior being made as a mokckry but i tried this and i feel no difrent about the coach potato God but however the show is fresh sweet heartwarming and very very funny

    Comments

    Files

    Miracle Workers (2019) - S02E03 - Road Trip (1080p AMZN WEB-DL x265 10bit EAC3 5.1 - HxD) [TAoE].mkv 414 MB

    Stream

    Downloading Seeding Miracle Workers (2019) - S02E03 - Road Trip (1080p AMZN WEB-DL x265 10bit EAC3 5.1 - HxD) [TAoE].mkv from to 0 peers.
    of
    0 b/s / ↗0 b/s