• -
  • -
  • done
Download
  • Mindörökké
  • 4.8 GB
  • qwertasdaf
  • Mind
  • Арт-хаус и авторское кино (HD

Description

Навсегда / Mindörökké / Perpetuity

image

Страна : Венгрия

Жанр : драма

Год выпуска : 2021

Продолжительность : 01:19:39

Перевод : Субтитры (Kleinzeit)

Субтитры : русские, английские

Оригинальная аудиодорожка : венгерский

Режиссер : Дьёрдь Пальфи / György Pálfi

В ролях : Кэролайн Бултон, Аттила Менсатор, Тамаш Полгар, Юлия Убранкович

Описание : Аллегорическая драма о своеобразном любовном треугольнике в постапокалиптической Венгрии, превратившейся в милитаризованную зону.

Сэмпл : http://sendfile.su/1656829

Качество видео : WEB-DL 1080p

Формат видео : MKV

Видео : AVC, Advanced Video Codec, 1920х1080 (16:9), 8250 Kbps, 25.000 FPS

Аудио : AC-3, Audio Coding 3, 6 channels, 48.0 kHz, 384 kb/s

Формат субтитров : softsub (SRT)

MediaInfo

`
General
Unique ID : 246700124864525891927089724243831291372 (0xB998B73D19AAF0D979B23F039849FDEC)
Complete name : C:BasedMidorokkePerpetuity.2021.1080p.HMAX.WEB-DL.DD5.1.H.264.KL.mkv
Format : Matroska
Format version : Version 4
File size : 4.79 GiB
Duration : 1 h 19 min
Overall bit rate mode : Variable
Overall bit rate : 8 617 kb/s
Movie name : Perpetuity.2021.1080p.HMAX.WEB-DL.DD5.1.H.264-PTHD
Encoded date : UTC 2022-09-03 11:55:52
Writing application : mkvmerge v67.0.0 ('Under Stars') 64-bit
Writing library : libebml v1.4.2 + libmatroska v1.6.4

Video
ID : 1
Format : AVC
Format/Info : Advanced Video Codec
Format profile : [email protected]
Format settings : CABAC / 4 Ref Frames
Format settings, CABAC : Yes
Format settings, Reference frames : 4 frames
Codec ID : VMPEG4/ISO/AVC
Duration : 1 h 19 min
Bit rate mode : Variable
Bit rate : 8 250 kb/s
Maximum bit rate : 12.4 Mb/s
Width : 1 920 pixels
Height : 1 080 pixels
Display aspect ratio : 16:9
Frame rate mode : Constant
Frame rate : 25.000 FPS
Color space : YUV
Chroma subsampling : 4:2:0
Bit depth : 8 bits
Scan type : Progressive
Bits/(Pixel*Frame) : 0.159
Stream size : 4.58 GiB (96%)
Writing library : x264 core 157 r2965 861cec4
Encoding settings : cabac=1 / ref=4 / deblock=1:0:0 / analyse=0x3:0x113 / me=hex / subme=7 / psy=1 / psy
rd=1.00:0.00 / mixedref=1 / merange=16 / chromame=1 / trellis=1 / 8x8dct=1 / cqm=0 / deadzone=21,11 / fastpskip=1 / chromaqpoffset=-2 / threads=34 / lookaheadthreads=5 / slicedthreads=0 / nr=0 / decimate=1 / interlaced=0 / bluraycompat=0 / constrainedintra=0 / bframes=3 / bpyramid=2 / badapt=1 / bbias=0 / direct=1 / weightb=1 / opengop=0 / weightp=2 / keyint=100 / keyintmin=100 / scenecut=40 / intrarefresh=0 / rclookahead=40 / rc=2pass / mbtree=1 / bitrate=8250 / ratetol=1.0 / qcomp=0.60 / qpmin=0 / qpmax=69 / qpstep=4 / cplxblur=20.0 / qblur=0.5 / vbvmaxrate=12375 / vbvbufsize=6187 / nalhrd=vbr / filler=0 / ip_ratio=1.40 / aq=1:1.00
Default : Yes
Forced : No
Color range : Limited
Color primaries : BT.709
Transfer characteristics : BT.709
Matrix coefficients : BT.709

Audio
ID : 2
Format : AC-3
Format/Info : Audio Coding 3
Commercial name : Dolby Digital
Codec ID : A_AC3
Duration : 1 h 19 min
Bit rate mode : Constant
Bit rate : 384 kb/s
Channel(s) : 6 channels
Channel layout : L R C LFE Ls Rs
Sampling rate : 48.0 kHz
Frame rate : 31.250 FPS (1536 SPF)
Compression mode : Lossy
Stream size : 219 MiB (4%)
Language : Hungarian
Service kind : Complete Main
Default : Yes
Forced : No

Text #1
ID : 3
Format : UTF-8
Codec ID : S_TEXT/UTF8
Codec ID/Info : UTF-8 Plain Text
Duration : 1 h 16 min
Bit rate : 29 b/s
Count of elements : 446
Stream size : 16.4 KiB (0%)
Language : Russian
Default : Yes
Forced : No

Text #2
ID : 4
Format : UTF-8
Codec ID : S_TEXT/UTF8
Codec ID/Info : UTF-8 Plain Text
Duration : 1 h 15 min
Bit rate : 17 b/s
Count of elements : 442
Stream size : 9.46 KiB (0%)
Language : English
Default : No
Forced : No
`

Скриншот c названием фильма

image

Скриншоты

image image image image image image

Фрагмент субтитров

8
00:11:41,919 --> 00:11:43,399
Всем привет.

9
00:11:57,519 --> 00:11:59,480
- Привет.
- Привет.

10
00:11:59,559 --> 00:12:01,440
Возьмёшь это?

11
00:12:03,960 --> 00:12:04,879
Да.

12
00:12:12,639 --> 00:12:13,600
И это всё?

13
00:12:19,159 --> 00:12:20,840
Налей стаканчик.

14
00:12:26,639 --> 00:12:28,440
- Крепкое?
- Да.

15
00:12:33,960 --> 00:12:35,080
Ещё один.

16
00:12:37,639 --> 00:12:39,360
Дай автомат.

17
00:13:08,480 --> 00:13:09,639
Ну, кто-нибудь?

18
00:13:10,000 --> 00:13:11,440
Хотите выпить?

19
00:13:14,159 --> 00:13:15,080
М?

20
00:14:02,440 --> 00:14:06,000
Любовь моя, напиток мой, любовь моя!

21
00:14:06,480 --> 00:14:10,360
Возьми меня за руку, умру я без тебя!


More at ibit.to
And ibit.uno
And ibit.am
And ibit.ws

Comments

3 weeks ago

QwertAsdaf - Это не WEBRip, а WEB-DL 1080p - Нужно указать битрейт аудио, а это - 31.250 FPS (1536 SPF) - не нужно. - На русских и английских субтитрах на флаге "Дорожка включена" стоит "Нет". Их не видно в MPC HC. Нужно пересобрать.

3 weeks ago

interdude писал(а): 83578738QwertAsdaf - Это не WEBRip, а WEB-DL 1080p - Нужно указать битрейт аудио, а это - 31.250 FPS (1536 SPF) - не нужно. - На русских и английских субтитрах на флаге "Дорожка включена" стоит "Нет". Их не видно в MPC HC. Нужно пересобрать. - Хорошо - Дайте пожалуйста ссылку на какие-нибудь правила оформления о том, где что надо указывать, а где не надо. Каждый раз я создаю раздачу по образцу одной из предыдущих проверенных, каждый раз что-то не слава богу. Это фрустрирует. Ну и вообще начинает казаться, что это мне больше всех надо. - Опять-таки дайте какую-нибудь ссылку на то, что значит "Дорожка включена", где это в Медиаинфо, что такое MPC HC и что, а главное как, там должно быть видно. Ну и вообще на правила того, каким должен или не должен быть видеофайл, чтобы его отсюда не удаляли.Спасибо.

3 weeks ago

QwertAsdaf В заголовке и в тексте раздачи должно быть так: WEB-DL 1080p Ссылка на Правила: Флаг: Обновите тулникс. После 67 версии это исправили. Проверяют разные модераторы - у каждого свои тараканы.

3 weeks ago

interdude писал(а): 83578969QwertAsdaf В заголовке и в тексте раздачи должно быть так: WEB-DL 1080p Ссылка на Правила: Флаг: Обновите тулникс. После 67 версии это исправили. Проверяют разные модераторы - у каждого свои тараканы. Исчерпывающе Поправил во всех 4 раздачах.

3 weeks ago

QwertAsdaf Осталось обновить MediaInfo.

3 weeks ago

interdude писал(а): 83579621QwertAsdaf Осталось обновить MediaInfo. Да.

3 weeks ago

В раздаче присутствуют еще английские субтитры.

3 weeks ago

Замечательная картина.

Files

Stream

Downloading Seeding Mindörökké from to 0 peers.
of
0 b/s / ↗0 b/s