• 15
  • 13
  • done
Downloadondemand_video
50%

Midnight in the Switchgrass (2021)

  • Crime Thriller Action
  • FBI Agent Helter and his partner Lombardi are very close to busting a sex-trafficking ring. When they realize their investigation has crossed the path of a brutal serial killer, they team up with a Texas Ranger to put an end to the infamous 'Truck Stop Killer'.

    expand_more
    English
  • $15,000,000
  • Description

    image

    https://www.imdb.com/title/tt11656220

    image

    image

    image

    image

    Video

    ID                                       : 1

    Format                                   : AVC

    Format/Info                              : Advanced Video Codec

    Format profile                           : [email protected]

    Format settings                          : CABAC / 4 Ref Frames

    Format settings, CABAC                   : Yes

    Format settings, Reference frames        : 4 frames

    Codec ID                                 : V_MPEG4/ISO/AVC

    Duration                                 : 1 h 40 min

    Bit rate                                 : 1 918 kb/s

    Width                                    : 1 280 pixels

    Height                                   : 536 pixels

    Display aspect ratio                     : 2.40:1

    Frame rate mode                          : Constant

    Frame rate                               : 23.976 (24000/1001) FPS

    Standard                                 : NTSC

    Color space                              : YUV

    Chroma subsampling                       : 4:2:0

    Bit depth                                : 8 bits

    Scan type                                : Progressive

    Bits/(Pixel*Frame)                       : 0.117

    Stream size                              : 1.34 GiB (91%)

    Language                                 : English

    Default                                  : Yes

    Forced                                   : No

    Color range                              : Limited

    Color primaries                          : BT.601 NTSC

    Transfer characteristics                 : BT.601

    Matrix coefficients                      : BT.601

    Audio

    ID                                       : 2

    Format                                   : AAC LC

    Format/Info                              : Advanced Audio Codec Low Complexity

    Codec ID                                 : A_AAC-2

    Duration                                 : 1 h 40 min

    Bit rate                                 : 192 kb/s

    Channel(s)                               : 2 channels

    Channel layout                           : L R

    Sampling rate                            : 48.0 kHz

    Frame rate                               : 46.875 FPS (1024 SPF)

    Compression mode                         : Lossy

    Stream size                              : 136 MiB (9%)

    Language                                 : Hindi

    Default                                  : Yes

    Forced                                   : No


    More at ibit.to
    And ibit.uno
    And ibit.am
    And ibit.ws

    Reviews

    Comments

    Files

    Midnight in the Switchgrass (2021) [Hindi Dub] 720p BDRip Saicord.mkv 1.5 GB

    Stream

    Downloading Seeding Midnight in the Switchgrass (2021) [Hindi Dub] 720p BDRip Saicord.mkv from to 0 peers.
    of
    0 b/s / ↗0 b/s