• 2,147,483,647
  • 12
  • done
Download
  • Linda Ronstadt - The '70s Collection (2014) [24-192]
  • 6.7 GB
  • papa1954
  • Linda Ronstadt 70s Collection 2014 192
  • Hi-Res stereo и многоканальная

Description

Linda Ronstadt - The '70s Collection (5 Albums)

image

Формат записи/Источник записи : [TR24][OF] | Наличие водяных знаков : Нет

Год издания/переиздания диска : 2014 | Жанр : Pop, Soft Rock, Country | Издатель(лейбл) : Rhino/Elektra

Продолжительность : 03:02:15 | Источник (релизер) : What.cd (stoptersnen) | Наличие сканов в содержимом раздачи : Нет

image  


Контейнер : FLAC (*.flac) | Тип рипа : tracks

Разрядность : 24/192 | Количество каналов : 2.0


 
 

1973 - Don't Cry Now

image

Продолжительность : 35:59

Треклист :
01. I Can Almost See It

(3:52)

  1. Love Has No Pride

(4:13)

  1. Silver Threads And Golden Needles

(2:25)

  1. Desperado

(3:32)

  1. Don't Cry Now

(4:31)

  1. Sail Away

(3:09)

  1. Colorado

(4:21)

  1. The Fast One

(3:43)

  1. Everybody Loves A Winner

(3:20)

  1. I Believe In You

(2:51)

Скриншот спектра частот

image

Динамический диапазон

`foobar2000 1.1.6 / Dynamic Range Meter 1.1.1
log date: 2014-12-07 18:29:23


Analyzed: Linda Ronstadt / Don't Cry Now
DR Peak RMS Duration Track

DR9 -0.10 dB -11.50 dB 3:52 01-I Can Almost See It
DR9 -0.10 dB -12.32 dB 4:13 02-Love Has No Pride
DR9 -0.10 dB -10.37 dB 2:25 03-Silver Threads And Golden Needles
DR9 -0.10 dB -12.75 dB 3:32 04-Desperado
DR9 -0.10 dB -11.42 dB 4:31 05-Don't Cry Now
DR8 -0.10 dB -12.06 dB 3:09 06-Sail Away
DR9 -0.10 dB -12.28 dB 4:21 07-Colorado
DR9 -0.10 dB -11.78 dB 3:43 08-The Fast One
DR9 -0.10 dB -12.15 dB 3:20 09-Everybody Loves A Winner

DR9 -0.10 dB -12.35 dB 2:51 10-I Believe In You

Number of tracks: 10
Official DR value: DR9

Samplerate: 192000 Hz
Channels: 2
Bits per sample: 24
Bitrate: 5230 kbps
Codec: FLAC
================================================================================ `

1975 - Prisoner In Disguise

image

Продолжительность : 36:37

Треклист :
01. Love Is A Rose

(2:49)

  1. Hey Mister, That's Me Up On The Jukebox

(4:10)

  1. Roll Um Easy

(2:59)

  1. Tracks Of My Tears

(3:15)

  1. Prisoner In Disguise

(3:56)

  1. Heat Wave

(2:48)

  1. Many Rivers To Cross

(4:08)

  1. The Sweetest Gift

(3:05)

  1. You Tell Me That I'M Falling Down

(3:20)

  1. I Will Always Love You

(3:01)

  1. Silver Blue

(3:05)

Скриншот спектра частот

image

Динамический диапазон

`foobar2000 1.1.6 / Dynamic Range Meter 1.1.1
log date: 2014-12-07 18:48:58


Analyzed: Linda Ronstadt / Prisoner In Disguise
DR Peak RMS Duration Track

DR11 -0.10 dB -13.79 dB 2:49 01-Love Is A Rose
DR12 -0.10 dB -14.56 dB 4:10 02-Hey Mister, That's Me Up On The Jukebox
DR10 -0.10 dB -11.96 dB 2:59 03-Roll Um Easy
DR10 -0.10 dB -12.46 dB 3:15 04-Tracks Of My Tears
DR11 -0.10 dB -14.45 dB 3:56 05-Prisoner In Disguise
DR10 -0.10 dB -11.08 dB 2:48 06-Heat Wave
DR10 -0.10 dB -14.05 dB 4:08 07-Many Rivers To Cross
DR13 -0.10 dB -16.19 dB 3:05 08-The Sweetest Gift
DR13 -0.10 dB -14.08 dB 3:20 09-You Tell Me That I'M Falling Down
DR11 -0.10 dB -14.15 dB 3:01 10-I Will Always Love You

DR13 -0.10 dB -14.56 dB 3:05 11-Silver Blue

Number of tracks: 11
Official DR value: DR11

Samplerate: 192000 Hz
Channels: 2
Bits per sample: 24
Bitrate: 5193 kbps
Codec: FLAC
================================================================================ `

1976 - Hasten Down The Wind

image

Продолжительность : 41:58

Треклист :
01. Lose Again

(3:38)

  1. The Tattler

(3:59)

  1. If He's Ever Near

(3:18)

  1. That'll Be The Day

(2:36)

  1. Lo Siento Mi Vida

(3:57)

  1. Hasten Down The Wind (with Don Henley)

(2:44)

  1. Rivers Of Babylon

(0:54)

  1. Give One Heart

(4:10)

  1. Try Me Again

(3:58)

  1. Crazy

(4:01)

  1. Down So Low

(4:18)

  1. Someone To Lay Down Beside Me

(4:27)

Скриншот спектра частот

image

Динамический диапазон

`foobar2000 1.1.6 / Dynamic Range Meter 1.1.1
log date: 2014-12-07 19:21:17


Analyzed: Linda Ronstadt / Hasten Down The Wind
DR Peak RMS Duration Track

DR10 -0.10 dB -12.94 dB 3:38 01-Lose Again
DR13 -0.10 dB -15.68 dB 3:59 02-The Tattler
DR11 -0.10 dB -14.62 dB 3:18 03-If He's Ever Near
DR10 -0.10 dB -12.20 dB 2:36 04-That'll Be The Day
DR13 -0.10 dB -16.27 dB 3:57 05-Lo Siento Mi Vida
DR14 -0.10 dB -17.12 dB 2:44 06-Hasten Down The Wind (with Don Henley)
DR13 -1.91 dB -18.49 dB 0:54 07-Rivers Of Babylon
DR11 -0.10 dB -13.38 dB 4:10 08-Give One Heart
DR11 -0.10 dB -14.20 dB 3:58 09-Try Me Again
DR15 -0.10 dB -18.51 dB 4:01 10-Crazy
DR13 -0.10 dB -17.07 dB 4:18 11-Down So Low

DR11 -0.10 dB -14.99 dB 4:27 12-Someone To Lay Down Beside Me

Number of tracks: 12
Official DR value: DR12

Samplerate: 192000 Hz
Channels: 2
Bits per sample: 24
Bitrate: 5199 kbps
Codec: FLAC
================================================================================ `

1977 - Simple Dreams

image

Продолжительность : 32:11

Треклист :
01. It's So Easy

(2:30)

  1. Carmelita

(3:08)

  1. Simple Man, Simple Dream

(3:14)

  1. Sorrow Lives Here

(2:58)

  1. I Never Will Marry (with Dolly Parton)

(3:15)

  1. Blue Bayou

(3:59)

  1. Poor, Poor Pitiful Me

(3:44)

  1. Maybe I'm Right

(3:08)

  1. Tumbling Dice

(3:10)

  1. Old Paint

(3:05)

Скриншот спектра частот

image

Динамический диапазон

`foobar2000 1.1.6 / Dynamic Range Meter 1.1.1
log date: 2014-12-07 19:51:24


Analyzed: Linda Ronstadt / Simple Dreams
DR Peak RMS Duration Track

DR11 -0.10 dB -12.62 dB 2:30 01-It's So Easy
DR14 -0.10 dB -16.99 dB 3:08 02-Carmelita
DR12 -0.10 dB -15.38 dB 3:14 03-Simple Man, Simple Dream
DR13 -2.71 dB -20.68 dB 2:58 04-Sorrow Lives Here
DR14 -3.75 dB -21.49 dB 3:15 05-I Never Will Marry (with Dolly Parton)
DR14 -0.10 dB -17.07 dB 3:59 06-Blue Bayou
DR10 -0.10 dB -11.75 dB 3:44 07-Poor, Poor Pitiful Me
DR13 -2.22 dB -19.24 dB 3:08 08-Maybe I'm Right
DR11 -0.10 dB -13.42 dB 3:10 09-Tumbling Dice

DR14 -0.10 dB -19.27 dB 3:05 10-Old Paint

Number of tracks: 10
Official DR value: DR13

Samplerate: 192000 Hz
Channels: 2
Bits per sample: 24
Bitrate: 5132 kbps
Codec: FLAC
================================================================================ `

1978 - Living In The USA

image

Продолжительность : 35:30

Треклист :
01. Back In The U.S.A.

(3:05)

  1. When I Grow Too Old To Dream

(3:54)

  1. Just One Look

(3:21)

  1. Alison

(3:28)

  1. White Rhythm & Blues

(4:15)

  1. All That You Dream

(3:46)

  1. Ooh Baby Baby

(3:21)

  1. Mohammed's Radio

(4:23)

  1. Blowing Away

(3:16)

  1. Love Me Tender

(2:38)

Скриншот спектра частот

image

Динамический диапазон

`foobar2000 1.1.6 / Dynamic Range Meter 1.1.1
log date: 2014-12-07 20:21:25


Analyzed: Linda Ronstadt / Living In The USA
DR Peak RMS Duration Track

DR11 -0.10 dB -12.29 dB 3:05 01-Back In The U.S.A.
DR10 -2.00 dB -18.59 dB 3:54 02-When I Grow Too Old To Dream
DR10 -0.10 dB -12.45 dB 3:21 03-Just One Look
DR13 -0.10 dB -16.78 dB 3:28 04-Alison
DR14 -0.10 dB -17.21 dB 4:15 05-White Rhythm & Blues
DR10 -0.10 dB -12.43 dB 3:46 06-All That You Dream
DR12 -0.10 dB -15.07 dB 3:21 07-Ooh Baby Baby
DR11 -0.10 dB -14.12 dB 4:23 08-Mohammed's Radio
DR12 -0.49 dB -16.77 dB 3:16 09-Blowing Away

DR11 -4.14 dB -19.45 dB 2:38 10-Love Me Tender

Number of tracks: 10
Official DR value: DR11

Samplerate: 192000 Hz
Channels: 2
Bits per sample: 24
Bitrate: 4946 kbps
Codec: FLAC
================================================================================ `


More at ibit.to
And ibit.uno
And ibit.am
And ibit.ws

Comments

7 years ago

В общем то не самые успешные альбомы.

7 years ago

gyji58 писал(а): 66109317В общем то не самые успешные альбомы. Да что Вы говорите! Цитата: Don't Cry Now (released in 1973, peaked at #45 on the Billboard 200 chart, RIAA certified Gold) tracks 1-10 Prisoner In Disguise (released in 1975, peaked at #4 on the Billboard 200 chart, RIAA certified Platinum) tracks 11-21 Hasten Down the Wind (released in 1976,peaked at #3 on the Billboard 200 chart, RIAA certified Platinum) tracks 22-33 Simple Dreams (released in 1977, peaked at #1 Billboard 200 chart, RIAA certified 3x Platinum ) tracks 34-43 Living in the USA (released in 1978, peaked at #1 on the Billboard 200 chart, RIAA certified 2x Platinum) tracks 44-53 Просто эта музыка не в том разделе.

7 years ago

The spectrogram's look very good on these it has the nice band across the 30khz which means it was sourced from the master tape!

Files

1975 - Prisoner In Disguise06. Heat Wave.flac 112 MB
1978 - Living In The USA10. Love Me Tender.flac 93 MB
1976 - Hasten Down The Wind12. Someone To Lay Down Beside Me.flac 165 MB
1976 - Hasten Down The Wind06. Hasten Down The Wind (with Don Henley).flac 98 MB
1975 - Prisoner In Disguise01. Love Is A Rose.flac 112 MB
1977 - Simple Dreams03. Simple Man, Simple Dream.flac 118 MB
1977 - Simple Dreams07. Poor, Poor Pitiful Me.flac 145 MB
1975 - Prisoner In Disguise09. You Tell Me That I'M Falling Down.flac 125 MB
1975 - Prisoner In Disguise02. Hey Mister, That's Me Up On The Jukebox.flac 161 MB
1978 - Living In The USA05. White Rhythm & Blues.flac 151 MB
1978 - Living In The USA02. When I Grow Too Old To Dream.flac 136 MB
1977 - Simple Dreams10. Old Paint.flac 114 MB
1975 - Prisoner In Disguise11. Silver Blue.flac 115 MB
1973 - Don't Cry Now05. Don't Cry Now.flac 171 MB
1975 - Prisoner In Disguise07. Many Rivers To Cross.flac 155 MB
1977 - Simple Dreams02. Carmelita.flac 118 MB
1977 - Simple Dreams06. Blue Bayou.flac 142 MB
1978 - Living In The USA08. Mohammed's Radio.flac 161 MB
1976 - Hasten Down The Wind08. Give One Heart.flac 158 MB
1976 - Hasten Down The Wind03. If He's Ever Near.flac 122 MB
1973 - Don't Cry Now04. Desperado.flac 132 MB
1978 - Living In The USA09. Blowing Away.flac 118 MB
1978 - Living In The USA03. Just One Look.flac 126 MB
1977 - Simple Dreams09. Tumbling Dice.flac 120 MB
1976 - Hasten Down The Wind09. Try Me Again.flac 148 MB
1976 - Hasten Down The Wind11. Down So Low.flac 157 MB
1976 - Hasten Down The Windfoo_dr.txt 1.5 kB
1975 - Prisoner In Disguise08. The Sweetest Gift.flac 116 MB
1975 - Prisoner In Disguise05. Prisoner In Disguise.flac 149 MB
1977 - Simple Dreams04. Sorrow Lives Here.flac 106 MB
1973 - Don't Cry Now01. I Can Almost See It.flac 148 MB
1978 - Living In The USA07. Ooh Baby Baby.flac 122 MB
1975 - Prisoner In Disguise04. Tracks Of My Tears.flac 129 MB
1975 - Prisoner In Disguise03. Roll Um Easy.flac 119 MB
1978 - Living In The USA01. Back In The U.S.A..flac 117 MB
1976 - Hasten Down The Wind05. Lo Siento Mi Vida.flac 144 MB
The '70s Collection.pdf 6.5 MB
1973 - Don't Cry Now09. Everybody Loves A Winner.flac 127 MB
1978 - Living In The USAfoo_dr.txt 1.4 kB
1976 - Hasten Down The Wind01. Lose Again.flac 137 MB
1977 - Simple Dreams01. It's So Easy.flac 97 MB
1978 - Living In The USA04. Alison.flac 124 MB
1973 - Don't Cry Now10. I Believe In You.flac 107 MB
1978 - Living In The USA06. All That You Dream.flac 143 MB
1977 - Simple Dreamsfoo_dr.txt 1.4 kB
1976 - Hasten Down The Wind10. Crazy.flac 143 MB
1977 - Simple Dreams05. I Never Will Marry (with Dolly Parton).flac 117 MB
1975 - Prisoner In Disguisefoo_dr.txt 1.5 kB
1977 - Simple Dreams08. Maybe I'm Right.flac 114 MB
1973 - Don't Cry Now06. Sail Away.flac 120 MB
1976 - Hasten Down The Wind02. The Tattler.flac 145 MB
1976 - Hasten Down The Wind04. That'll Be The Day.flac 101 MB
1973 - Don't Cry Now08. The Fast One.flac 146 MB
1973 - Don't Cry Nowfoo_dr.txt 1.4 kB
1975 - Prisoner In Disguise10. I Will Always Love You.flac 113 MB
1973 - Don't Cry Now02. Love Has No Pride.flac 160 MB
1976 - Hasten Down The Wind07. Rivers Of Babylon.flac 33 MB
1973 - Don't Cry Now03. Silver Threads And Golden Needles.flac 98 MB
1973 - Don't Cry Now07. Colorado.flac 164 MB

Stream

Downloading Seeding Linda Ronstadt - The '70s Collection (2014) [24-192] from to 0 peers.
of
0 b/s / ↗0 b/s