• 1
  • -
  • done
Download
  • Earwig (Люсиль Хадзихалилович
  • 4.7 GB
  • qwertasdaf
  • Earwig
  • Арт-хаус и авторское кино (HD

Description

Уховёртка / Earwig

image

Страна : Великобритания, Франция, Бельгия

Жанр : драма

Год выпуска : 2021

Продолжительность : 01:54:21

Перевод : Субтитры (Kleinzeit)

Субтитры : русские, английские

Оригинальная аудиодорожка : английский

Режиссер : Люсиль Хадзихалилович / Lucile Hadzihalilovic

В ролях : Пол Хилтон, Алекс Лоутер, Романа Хемеларс, Ромола Гарай, Петер Ван ден Бегин, Анастасия Робин, Мари Бос, Изабель де Гертог, Михаэль Пас, Мартен Версе

Описание : Европа середины XX века. Альберт присматривает за девочкой Мией, которая никогда не покидает квартиры в старинном здании. У Мии проблемы с зубами — каждый день ей приходится менять стеклянные импланты. Однажды Альберту прикажут подготовить девочку к переезду, что навсегда изменит их и без того тревожное существование.

Сэмпл : http://sendfile.su/1656832

Качество видео : WEB-DL 1080p

Формат видео : MKV

Видео : AVC, Advanced Video Codec, 1920х1080 (16:9), 5523 Kbps, 24.000 FPS

Аудио : AAC LC, Advanced Audio Codec Low Complexity, 2 channels, 48.0 kHz, 317 kb/s

MediaInfo

`
General
Unique ID : 317975430481760218987216650243049556494 (0xEF37D71ED89B15F4AC46B8A8DC448A0E)
Complete name : C:BasedEarwigEarwig.2021.1080p.WEB-DL.AAC.2.0.H.264.KL.mkv
Format : Matroska
Format version : Version 4
File size : 4.67 GiB
Duration : 1 h 54 min
Overall bit rate : 5 843 kb/s
Encoded date : UTC 2022-09-03 12:02:11
Writing application : mkvmerge v67.0.0 ('Under Stars') 64-bit
Writing library : libebml v1.4.2 + libmatroska v1.6.4

Video
ID : 1
Format : AVC
Format/Info : Advanced Video Codec
Format profile : [email protected]
Format settings : CABAC / 4 Ref Frames
Format settings, CABAC : Yes
Format settings, Reference frames : 4 frames
Codec ID : V_MPEG4/ISO/AVC
Duration : 1 h 54 min
Bit rate : 5 523 kb/s
Width : 1 920 pixels
Height : 1 080 pixels
Display aspect ratio : 16:9
Frame rate mode : Constant
Frame rate : 24.000 FPS
Color space : YUV
Chroma subsampling : 4:2:0
Bit depth : 8 bits
Scan type : Progressive
Bits/(Pixel*Frame) : 0.111
Stream size : 4.41 GiB (95%)
Default : Yes
Forced : No

Audio
ID : 2
Format : AAC LC
Format/Info : Advanced Audio Codec Low Complexity
Codec ID : A_AAC-2
Duration : 1 h 54 min
Bit rate : 317 kb/s
Channel(s) : 2 channels
Channel layout : L R
Sampling rate : 48.0 kHz
Frame rate : 46.875 FPS (1024 SPF)
Compression mode : Lossy
Stream size : 260 MiB (5%)
Language : English
Default : Yes
Forced : No

Text #1
ID : 3
Format : UTF-8
Codec ID : S_TEXT/UTF8
Codec ID/Info : UTF-8 Plain Text
Duration : 1 h 51 min
Bit rate : 7 b/s
Count of elements : 149
Stream size : 6.05 KiB (0%)
Language : Russian
Default : Yes
Forced : No

Text #2
ID : 4
Format : UTF-8
Codec ID : S_TEXT/UTF8
Codec ID/Info : UTF-8 Plain Text
Duration : 1 h 25 min
Bit rate : 5 b/s
Count of elements : 144
Stream size : 3.63 KiB (0%)
Language : English
Default : No
Forced : No
`

Скриншот c названием фильма

image

Скриншоты

image image image image image image

Фрагмент субтитров

6
00:24:06,825 --> 00:24:07,950
Как девочка?

7
00:24:08,950 --> 00:24:10,950
Всё хорошо, сэр.

8
00:24:12,200 --> 00:24:16,075
Спит крепко. Аппетит в порядке.
Всё как и должно быть.

9
00:24:18,450 --> 00:24:19,575
А зубы?

10
00:24:20,575 --> 00:24:22,200
Всё хорошо, сэр.

11
00:24:23,825 --> 00:24:26,325
Ваше месячное жалование уже отправлено.

12
00:24:27,075 --> 00:24:28,700
Вам что-нибудь ещё нужно?

13
00:24:28,700 --> 00:24:29,950
Нет, сэр.

14
00:24:31,825 --> 00:24:33,825
Платежей больше не будет.

15
00:24:35,700 --> 00:24:36,825
Сэр?

16
00:24:37,825 --> 00:24:40,325
Надо начинать готовить девочку к отъезду.

17
00:24:41,700 --> 00:24:42,825
Отъезду?

18
00:24:46,575 --> 00:24:52,575
Доставьте её нам после 6-го дня
следующего месяца в 13-дневный срок.

19
00:24:55,325 --> 00:24:59,450
До этого момента нужно научить
её вести себя на улице.

20
00:25:00,325 --> 00:25:01,950
Вы поняли, Скеллинк?

21
00:25:02,950 --> 00:25:04,325
Да, сэр.


More at ibit.to
And ibit.uno
And ibit.am
And ibit.ws

Comments

3 weeks ago

В раздаче присутствуют еще английские субтитры.

3 weeks ago

QwertAsdaf А отчего одноголосый не добавили?

Files

Stream

Downloading Seeding Earwig (Люсиль Хадзихалилович from to 0 peers.
of
0 b/s / ↗0 b/s