• -
  • -
  • done
ondemand_video
  • Dont.Be.Bad.2015.BDRemux.1080p.mkv
  • 21 GB
  • porvaliparus
  • Dont Bad 2015 BDRemux 1080p mkv
  • HD Video
79%

Don't Be Bad (2015)

  • Crime Drama
  • A story set in the 90s and in the outskirts of Rome to Ostia. A world where money, luxury cars, night clubs, cocaine and synthetic drugs are easy to run. A world in which Vittorio and Cesare, in their early twenties, act in search of their success.

    expand_more
    Italian

    Description

    Не будь злым / Non essere cattivo / Don't Be Bad

    image

    Страна : Италия

    Студия : Kimerafilm, Rai Cinema, Taodue Film

    Жанр : драма, криминал

    Год выпуска : 2015

    Продолжительность : 01:42:19

    Перевод : Одноголосый закадровый

    Сибирский

    Субтитры : английские, итальянские

    Оригинальная аудиодорожка : итальянский

    Режиссер : Клаудио Калигари / Claudio Caligari

    В ролях : Лука Маринелли, Алессандро Борги, Сильвия д’Амико, Роберта Маттеи, Алессандро Бернардини, Валентино Кампителли, Мануэль Рулли, Элизабетта Де Вито, Эмануэла Фанелли, Джулия Греко и др.

    Описание : Остия, предместья Рима, 1995 год. Здесь живут Чезаре и Витторио, два друга детства, оба выходцы из небогатых семей, которые живут, ударяясь в крайности, проводят свои дни и ночи между ночными клубами, наркотиками, алкоголем. Каждый из них ищет успеха, но, как показывают дальнейшие события, для каждого из них этот самый успех заключается в совсем разных вещах.


    Сэмпл IMDB Кинопоиск


    Тип релиза : BDRemux 1080p (Don't Be Bad 2015 1080p BluRay REMUX AVC DTS-HD MA 5.1-BLURANiUM)

    Контейнер : MKV

    Видео : AVC / 1920x1080 / 16:9 / 24.0 fps / 24986 Kbps / [email protected]

    Аудио 1 Rus : AC3 / 48.0 KHz / 5.1 / 448 kbps / VO / Сибирский

    Аудио 2 Ita : DTS-HD MA / 48.0 KHz / 5.1 / 1824 kbps / 16 bit (DTS Core 48.0 KHz / 5.1 / 1509 kbps / 16 bit)

    Формат субтитров : softsub (SRT) - английские, PGS - итальянские

    MediaInfo

    `Общее
    Уникальный идентификатор : 146725246312625060749951107392161409214 (0x6E624129FFCF10199E010D0F8B1B68BE)
    Полное имя : D:porvaliparus 2020Dont.Be.Bad.2015.BDRemux.1080p.mkv
    Формат : Matroska
    Версия формата : Version 4 / Version 2
    Размер файла : 19,5 Гбайт
    Продолжительность : 1 ч. 42 м.
    Режим общего битрейта : Переменный
    Общий поток : 27,3 Мбит/сек
    Название фильма : Dont.Be.Bad.2015.BDRemux.1080p-porvaliparus
    Дата кодирования : UTC 2020-02-14 09:25:32
    Программа кодирования : mkvmerge v43.0.0 ('The Quartermaster') 64-bit
    Библиотека кодирования : libebml v1.3.10 + libmatroska v1.5.2

    Видео
    Идентификатор : 1
    Формат : AVC
    Формат/Информация : Advanced Video Codec
    Профиль формата : [email protected]
    Параметр CABAC формата : Да
    Параметр ReFrames формата : 4 кадра
    Параметр GOP формата : M=3, N=12
    Идентификатор кодека : V_MPEG4/ISO/AVC
    Продолжительность : 1 ч. 42 м.
    Вид битрейта : Переменный
    Битрейт : 25,0 Мбит/сек
    Максимальный битрейт : 34,0 Мбит/сек
    Ширина : 1920 пикселей
    Высота : 1080 пикселей
    Соотношение сторон : 16:9
    Режим частоты кадров : Постоянный
    Частота кадров : 24,000 кадра/сек
    Стандарт вещания : NTSC
    Цветовое пространство : YUV
    Субдискретизация насыщенности : 4:2:0
    Битовая глубина : 8 бит
    Тип развёртки : Прогрессивная
    Бит/(Пиксели*Кадры) : 0.502
    Размер потока : 17,9 Гбайт (92%)
    Заголовок : Dont.Be.Bad.2015.BDRemux.1080p
    Default : Да
    Forced : Нет
    Цветовой диапазон : Limited
    Основные цвета : BT.709
    Характеристики трансфера : BT.709
    Коэффициенты матрицы : BT.709

    Аудио #1
    Идентификатор : 2
    Формат : AC-3
    Формат/Информация : Audio Coding 3
    Параметр Endianness формата : Big
    Идентификатор кодека : A_AC3
    Продолжительность : 1 ч. 42 м.
    Вид битрейта : Постоянный
    Битрейт : 448 Кбит/сек
    Каналы : 6 каналов
    Расположение каналов : Front: L C R, Side: L R, LFE
    Частота : 48,0 КГц
    Частота кадров : 31,250 кадров/сек (1536 spf)
    Битовая глубина : 16 бит
    Метод сжатия : С потерями
    Размер потока : 328 Мбайт (2%)
    Заголовок : VO [Сибирский]
    Язык : Russian
    ServiceKind/String : Complete Main
    Default : Да
    Forced : Нет

    Аудио #2
    Идентификатор : 3
    Формат : DTS
    Формат/Информация : Digital Theater Systems
    Профиль формата : MA / Core
    Режим : 16
    Параметр Endianness формата : Big
    Идентификатор кодека : A_DTS
    Продолжительность : 1 ч. 42 м.
    Вид битрейта : Переменный / Постоянный
    Битрейт : 1824 Кбит/сек / 1509 Кбит/сек
    Каналы : 6 каналов
    Расположение каналов : Front: L C R, Side: L R, LFE
    Частота : 48,0 КГц
    Частота кадров : 93,750 кадра/сек (512 spf)
    Битовая глубина : 16 бит
    Метод сжатия : Без потерь / Lossy
    Размер потока : 1,30 Гбайт (7%)
    Язык : Italian
    Default : Нет
    Forced : Нет

    Текст #1
    Идентификатор : 4
    Формат : UTF-8
    Идентификатор кодека : S_TEXT/UTF8
    Идентификатор кодека/Информация : UTF-8 Plain Text
    Продолжительность : 1 ч. 36 м.
    Битрейт : 39 бит/сек
    ElementCount : 848
    Размер потока : 28,1 Кбайт (0%)
    Язык : English
    Default : Нет
    Forced : Нет

    Текст #2
    Идентификатор : 5
    Формат : PGS
    Идентификатор кодека : S_HDMV/PGS
    Идентификатор кодека/Информация : Picture based subsrc format used on BDs/HD-DVDs
    Продолжительность : 1 ч. 37 м.
    Битрейт : 21,3 Кбит/сек
    ElementCount : 1780
    Размер потока : 14,8 Мбайт (0%)
    Язык : Italian
    Default : Нет
    Forced : Нет

    Меню
    00:00:00.000 : en:Chapter 01
    00:09:54.667 : en:Chapter 02
    00:20:46.667 : en:Chapter 03
    00:28:24.833 : en:Chapter 04
    00:34:28.458 : en:Chapter 05
    00:42:37.750 : en:Chapter 06
    00:50:49.000 : en:Chapter 07
    00:59:18.667 : en:Chapter 08
    01:04:07.875 : en:Chapter 09
    01:09:02.500 : en:Chapter 10
    01:14:55.792 : en:Chapter 11
    01:20:34.208 : en:Chapter 12
    01:26:33.583 : en:Chapter 13
    01:31:22.417 : en:Chapter 14
    01:38:44.250 : en:Chapter 15 `

    Скриншоты

    image image image image
    image image image image


    More at ibit.to
    And ibit.uno
    And ibit.am
    And ibit.ws

    Reviews

    Comments

    Files

    Dont.Be.Bad.2015.BDRemux.1080p.mkv 21 GB

    Stream

    Downloading Seeding Dont.Be.Bad.2015.BDRemux.1080p.mkv from to 0 peers.
    of
    0 b/s / ↗0 b/s