• -
  • -
  • done
  • Bob Dylan - The Rundown Rehearsal Tapes (White Bear, 2002)
  • 1.7 GB
  • sir.pere
  • Bob Dylan Rundown Rehearsal Tapes White Bear 2002
  • Зарубежный Rock

Description

Bob Dylan / The Rundown Rehearsal Tapes

image

Жанр : Folk-Rock

Носитель : CD

Страна-производитель диска (релиза) : Europe

Год издания : 2002

Издатель (лейбл) : White Bear

Номер по каталогу : 009/010/011/012

Страна исполнителя (группы) : USA

Аудиокодек : FLAC (*.flac)

Тип рипа : tracks+.cue

Источник : Сеть

Наличие сканов в содержимом раздачи : да

CD1

Like A Rolling Stone (1)
It's All Over Now Baby Blue (1)
It's All Over Now Baby Blue (2)
Blowin In The Wind
Maggie's Farm
Like A Rolling Stone (2)
The Man In Me
To Ramona
Most Likely You Go Your Way
Simple Twist Of Fate
Leopard Skin Pill Box Hat
If Not For You
I Threw It All Away
I'll Be Your Baby Tonight
Going Going Gone
You're Gonna Make Me Lonesome
Simple Twist Of Fate
My Babe
Like A Rolling Stone (3)

EAC

`EAC extraction logfile from 8. May 2011, 12:35 for CD
Bob Dylan / Rundown Rehearsal Tapes - disc 1

Used drive : HP DVD Writer 1170d Adapter: 1 ID: 0
Read mode : Secure with NO C2, accurate stream, disable cache
Read offset correction : 6
Overread into Lead-In and Lead-Out : No

Used output format : C:Program FilesFLACflac.exe (User Defined Encoder)
128 kBit/s
Additional command line options : -8 -V -T "ARTIST=%a" -T "TITLE=%t" -T "ALBUM=%g" -T "DATE=%y" -T "TRACKNUMBER=%n" -T "TOTALTRACKS=%x" -T "GENRE=%m" -T "ALBUM ARTIST=%v" -T "ALBUMARTIST=%v" -T "COMMENT=EAC V0.99 prebeta 4, Secure Mode,

Other options :
Fill up missing offset samples with silence : Yes
Delete leading and trailing silent blocks : No
Installed external ASPI interface

Track 1
Filename C:Documents and SettingsdylanrundownCD 101 - Like A Rollin Stone.wav

Pre-gap length 0:00:02.00

Peak level 73.7 %
Track quality 100.0 %
Test CRC 3DDD2D84
Copy CRC 3DDD2D84
Copy OK

Track 2
Filename C:Documents and SettingsdylanrundownCD 102 - It's All Over Now (1).wav

Peak level 72.8 %
Track quality 100.0 %
Test CRC BE0B40CF
Copy CRC BE0B40CF
Copy OK

Track 3
Filename C:Documents and SettingsdylanrundownCD 103 - It's All Over Now (2).wav

Peak level 77.3 %
Track quality 100.0 %
Test CRC 685F7566
Copy CRC 685F7566
Copy OK

Track 4
Filename C:Documents and SettingsdylanrundownCD 104 - Blowin in the Wind.wav

Pre-gap length 0:00:01.76

Peak level 77.1 %
Track quality 100.0 %
Test CRC 510EA3D3
Copy CRC 510EA3D3
Copy OK

Track 5
Filename C:Documents and SettingsdylanrundownCD 105 - Maggie's Farm.wav

Peak level 78.5 %
Track quality 100.0 %
Test CRC F27F10C5
Copy CRC F27F10C5
Copy OK

Track 6
Filename C:Documents and SettingsdylanrundownCD 106 - Like A Rollin Stone (2).wav

Peak level 85.7 %
Track quality 100.0 %
Test CRC 15392F9B
Copy CRC 15392F9B
Copy OK

Track 7
Filename C:Documents and SettingsdylanrundownCD 107 - The Man in Me.wav

Peak level 81.0 %
Track quality 99.9 %
Test CRC 0C3980A8
Copy CRC 0C3980A8
Copy OK

Track 8
Filename C:Documents and SettingsdylanrundownCD 108 - To Ramona.wav

Pre-gap length 0:00:01.73

Peak level 86.8 %
Track quality 100.0 %
Test CRC A28FE38F
Copy CRC A28FE38F
Copy OK

Track 9
Filename C:Documents and SettingsdylanrundownCD 109 - Most Likely You'll Go Your Way.wav

Pre-gap length 0:00:00.29

Peak level 85.3 %
Track quality 100.0 %
Test CRC 4A31B014
Copy CRC 4A31B014
Copy OK

Track 10
Filename C:Documents and SettingsdylanrundownCD 110 - Simple Twist of Fate (1).wav

Peak level 85.3 %
Track quality 100.0 %
Test CRC AD2A2FB9
Copy CRC AD2A2FB9
Copy OK

Track 11
Filename C:Documents and SettingsdylanrundownCD 111 - Leopard Skin Pillbox Hat.wav

Peak level 83.2 %
Track quality 100.0 %
Test CRC C35B63A5
Copy CRC C35B63A5
Copy OK

Track 12
Filename C:Documents and SettingsdylanrundownCD 112 - If Not for You.wav

Peak level 83.0 %
Track quality 100.0 %
Test CRC EE2C6AC6
Copy CRC EE2C6AC6
Copy OK

Track 13
Filename C:Documents and SettingsdylanrundownCD 113 - I Threw it All Away.wav

Pre-gap length 0:00:01.16

Peak level 80.9 %
Track quality 100.0 %
Test CRC E0F13686
Copy CRC E0F13686
Copy OK

Track 14
Filename C:Documents and SettingsdylanrundownCD 114 - I'll Be Your Baby Tonight.wav

Peak level 87.5 %
Track quality 100.0 %
Test CRC 1631217D
Copy CRC 1631217D
Copy OK

Track 15
Filename C:Documents and SettingsdylanrundownCD 115 - Going Going Gone.wav

Pre-gap length 0:00:01.54

Peak level 87.0 %
Track quality 100.0 %
Test CRC 3136360F
Copy CRC 3136360F
Copy OK

Track 16
Filename C:Documents and SettingsdylanrundownCD 116 - You're Gonna Make Me Lonesome When You Go.wav

Peak level 100.0 %
Track quality 100.0 %
Test CRC A28FE7F5
Copy CRC A28FE7F5
Copy OK

Track 17
Filename C:Documents and SettingsdylanrundownCD 117 - Simple Twist of Fate (2).wav

Pre-gap length 0:00:01.81

Peak level 74.1 %
Track quality 100.0 %
Test CRC 4EB8C3B4
Copy CRC 4EB8C3B4
Copy OK

Track 18
Filename C:Documents and SettingsdylanrundownCD 118 - My Babe.wav

Peak level 79.1 %
Track quality 100.0 %
Test CRC D83850C6
Copy CRC D83850C6
Copy OK

Track 19
Filename C:Documents and SettingsdylanrundownCD 119 - Like A Rollin Stone (3).wav

Pre-gap length 0:00:00.46

Peak level 68.5 %
Track quality 100.0 %
Test CRC 25537F0D
Copy CRC 25537F0D
Copy OK

No errors occured

End of status report `

CUE

REM GENRE Rock REM DATE 2002 REM DISCID 0E0F9813 REM COMMENT "ExactAudioCopy v0.95b4" PERFORMER "Bob Dylan" TITLE "Rundown Rehearsal Tapes - disc 1" FILE "01 - Like A Rollin Stone.wav" WAVE TRACK 01 AUDIO TITLE "Like A Rollin Stone" PERFORMER "Bob Dylan" INDEX 01 00:00:00 FILE "02 - It's All Over Now (1).wav" WAVE TRACK 02 AUDIO TITLE "It's All Over Now (1)" PERFORMER "Bob Dylan" INDEX 01 00:00:00 FILE "03 - It's All Over Now (2).wav" WAVE TRACK 03 AUDIO TITLE "It's All Over Now (2)" PERFORMER "Bob Dylan" INDEX 01 00:00:00 TRACK 04 AUDIO TITLE "Blowin in the Wind" PERFORMER "Bob Dylan" INDEX 00 01:51:44 FILE "04 - Blowin in the Wind.wav" WAVE INDEX 01 00:00:00 FILE "05 - Maggie's Farm.wav" WAVE TRACK 05 AUDIO TITLE "Maggie's Farm" PERFORMER "Bob Dylan" INDEX 01 00:00:00 FILE "06 - Like A Rollin Stone (2).wav" WAVE TRACK 06 AUDIO TITLE "Like A Rollin Stone (2)" PERFORMER "Bob Dylan" INDEX 01 00:00:00 FILE "07 - The Man in Me.wav" WAVE TRACK 07 AUDIO TITLE "The Man in Me" PERFORMER "Bob Dylan" INDEX 01 00:00:00 TRACK 08 AUDIO TITLE "To Ramona" PERFORMER "Bob Dylan" INDEX 00 03:47:28 FILE "08 - To Ramona.wav" WAVE INDEX 01 00:00:00 TRACK 09 AUDIO TITLE "Most Likely You'll Go Your Way" PERFORMER "Bob Dylan" INDEX 00 05:40:35 FILE "09 - Most Likely You'll Go Your Way.wav" WAVE INDEX 01 00:00:00 FILE "10 - Simple Twist of Fate (1).wav" WAVE TRACK 10 AUDIO TITLE "Simple Twist of Fate (1)" PERFORMER "Bob Dylan" INDEX 01 00:00:00 FILE "11 - Leopard Skin Pillbox Hat.wav" WAVE TRACK 11 AUDIO TITLE "Leopard Skin Pillbox Hat" PERFORMER "Bob Dylan" INDEX 01 00:00:00 FILE "12 - If Not for You.wav" WAVE TRACK 12 AUDIO TITLE "If Not for You" PERFORMER "Bob Dylan" INDEX 01 00:00:00 TRACK 13 AUDIO TITLE "I Threw it All Away" PERFORMER "Bob Dylan" INDEX 00 03:23:50 FILE "13 - I Threw it All Away.wav" WAVE INDEX 01 00:00:00 FILE "14 - I'll Be Your Baby Tonight.wav" WAVE TRACK 14 AUDIO TITLE "I'll Be Your Baby Tonight" PERFORMER "Bob Dylan" INDEX 01 00:00:00 TRACK 15 AUDIO TITLE "Going Going Gone" PERFORMER "Bob Dylan" INDEX 00 03:39:67 FILE "15 - Going Going Gone.wav" WAVE INDEX 01 00:00:00 FILE "16 - You're Gonna Make Me Lonesome When You Go.wav" WAVE TRACK 16 AUDIO TITLE "You're Gonna Make Me Lonesome When You Go" PERFORMER "Bob Dylan" INDEX 01 00:00:00 TRACK 17 AUDIO TITLE "Simple Twist of Fate (2)" PERFORMER "Bob Dylan" INDEX 00 03:51:17 FILE "17 - Simple Twist of Fate (2).wav" WAVE INDEX 01 00:00:00 FILE "18 - My Babe.wav" WAVE TRACK 18 AUDIO TITLE "My Babe" PERFORMER "Bob Dylan" INDEX 01 00:00:00 TRACK 19 AUDIO TITLE "Like A Rollin Stone (3)" PERFORMER "Bob Dylan" INDEX 00 02:55:17 FILE "19 - Like A Rollin Stone (3).wav" WAVE INDEX 01 00:00:00

CD2

Just Like A Woman (1)
Just Like A Woman (2)
Blowin' In The Wind (1)
Blowin' In The Wind (2)
I'll Be Your Baby Tonight
The Man In Me
You're A Big Girl Now
Don't Think Twice
I Threw It All Away
Love Minus Zero
Maggie's Farm
Ballad Of A Thin Man
Simple Twist Of Fate
To Ramona
If You See Her Say Hello

EAC

`EAC extraction logfile from 8. May 2011, 16:13 for CD
Bob Dylan / Rundown Rehearsals 2

Used drive : HP DVD Writer 1170d Adapter: 1 ID: 0
Read mode : Secure with NO C2, accurate stream, disable cache
Read offset correction : 6
Overread into Lead-In and Lead-Out : No

Used output format : C:Program FilesFLACflac.exe (User Defined Encoder)
128 kBit/s
Additional command line options : -8 -V -T "ARTIST=%a" -T "TITLE=%t" -T "ALBUM=%g" -T "DATE=%y" -T "TRACKNUMBER=%n" -T "TOTALTRACKS=%x" -T "GENRE=%m" -T "ALBUM ARTIST=%v" -T "ALBUMARTIST=%v" -T "COMMENT=EAC V0.99 prebeta 4, Secure Mode,

Other options :
Fill up missing offset samples with silence : Yes
Delete leading and trailing silent blocks : No
Installed external ASPI interface

Track 1
Filename C:Documents and SettingsdylanrundownCD 201 - Just Like a Woman I.wav

Pre-gap length 0:00:02.00

Peak level 67.4 %
Track quality 100.0 %
Test CRC B0C61322
Copy CRC B0C61322
Copy OK

Track 2
Filename C:Documents and SettingsdylanrundownCD 202 - Just Like a Woman II.wav

Peak level 71.5 %
Track quality 100.0 %
Test CRC 49F9A0AB
Copy CRC 49F9A0AB
Copy OK

Track 3
Filename C:Documents and SettingsdylanrundownCD 203 - Blowin' In the Wind I.wav

Peak level 64.1 %
Track quality 100.0 %
Test CRC 5FB0BCEA
Copy CRC 5FB0BCEA
Copy OK

Track 4
Filename C:Documents and SettingsdylanrundownCD 204 - Blowin' In the Wind II.wav

Peak level 67.8 %
Track quality 100.0 %
Test CRC A1E3DB11
Copy CRC A1E3DB11
Copy OK

Track 5
Filename C:Documents and SettingsdylanrundownCD 205 - I'll Be Your Baby Tonight.wav

Peak level 74.0 %
Track quality 99.9 %
Test CRC 9E5566A4
Copy CRC 9E5566A4
Copy OK

Track 6
Filename C:Documents and SettingsdylanrundownCD 206 - The Man In Me.wav

Peak level 74.4 %
Track quality 100.0 %
Test CRC 021B8460
Copy CRC 021B8460
Copy OK

Track 7
Filename C:Documents and SettingsdylanrundownCD 207 - You're a Big Girl Now.wav

Peak level 69.1 %
Track quality 100.0 %
Test CRC 613C4946
Copy CRC 613C4946
Copy OK

Track 8
Filename C:Documents and SettingsdylanrundownCD 208 - Don't Think Twice.wav

Pre-gap length 0:00:00.85

Peak level 67.9 %
Track quality 100.0 %
Test CRC F289F858
Copy CRC F289F858
Copy OK

Track 9
Filename C:Documents and SettingsdylanrundownCD 209 - I Threw It All Away.wav

Pre-gap length 0:00:00.93

Peak level 75.0 %
Track quality 100.0 %
Test CRC 7AD788D0
Copy CRC 7AD788D0
Copy OK

Track 10
Filename C:Documents and SettingsdylanrundownCD 210 - Love Minus Zero.wav

Pre-gap length 0:00:00.01

Peak level 64.4 %
Track quality 100.0 %
Test CRC 8E3C391B
Copy CRC 8E3C391B
Copy OK

Track 11
Filename C:Documents and SettingsdylanrundownCD 211 - Maggie's Farm.wav

Peak level 72.0 %
Track quality 100.0 %
Test CRC FC1025FE
Copy CRC FC1025FE
Copy OK

Track 12
Filename C:Documents and SettingsdylanrundownCD 212 - Ballad of a Thin Man.wav

Pre-gap length 0:00:00.45

Peak level 67.8 %
Track quality 100.0 %
Test CRC 4E40EAB9
Copy CRC 4E40EAB9
Copy OK

Track 13
Filename C:Documents and SettingsdylanrundownCD 213 - Simple Twist of Fate.wav

Peak level 71.7 %
Track quality 100.0 %
Test CRC 8905A238
Copy CRC 8905A238
Copy OK

Track 14
Filename C:Documents and SettingsdylanrundownCD 214 - To Ramona.wav

Peak level 68.0 %
Track quality 100.0 %
Test CRC 35FA8559
Copy CRC 35FA8559
Copy OK

Track 15
Filename C:Documents and SettingsdylanrundownCD 215 - If You See Her Say Hello.wav

Peak level 70.3 %
Track quality 100.0 %
Test CRC 6C288A41
Copy CRC 6C288A41
Copy OK

No errors occured

End of status report `

CUE

REM GENRE rock REM DISCID D310020F REM COMMENT "ExactAudioCopy v0.95b4" PERFORMER "Bob Dylan" TITLE "Rundown Rehearsals 2" FILE "01 - Just Like a Woman I.wav" WAVE TRACK 01 AUDIO TITLE "Just Like a Woman I" PERFORMER "Bob Dylan" INDEX 01 00:00:00 FILE "02 - Just Like a Woman II.wav" WAVE TRACK 02 AUDIO TITLE "Just Like a Woman II" PERFORMER "Bob Dylan" INDEX 01 00:00:00 FILE "03 - Blowin' In the Wind I.wav" WAVE TRACK 03 AUDIO TITLE "Blowin' In the Wind I" PERFORMER "Bob Dylan" INDEX 01 00:00:00 FILE "04 - Blowin' In the Wind II.wav" WAVE TRACK 04 AUDIO TITLE "Blowin' In the Wind II" PERFORMER "Bob Dylan" INDEX 01 00:00:00 FILE "05 - I'll Be Your Baby Tonight.wav" WAVE TRACK 05 AUDIO TITLE "I'll Be Your Baby Tonight" PERFORMER "Bob Dylan" INDEX 01 00:00:00 FILE "06 - The Man In Me.wav" WAVE TRACK 06 AUDIO TITLE "The Man In Me" PERFORMER "Bob Dylan" INDEX 01 00:00:00 FILE "07 - You're a Big Girl Now.wav" WAVE TRACK 07 AUDIO TITLE "You're a Big Girl Now" PERFORMER "Bob Dylan" INDEX 01 00:00:00 TRACK 08 AUDIO TITLE "Don't Think Twice" PERFORMER "Bob Dylan" INDEX 00 06:26:34 FILE "08 - Don't Think Twice.wav" WAVE INDEX 01 00:00:00 TRACK 09 AUDIO TITLE "I Threw It All Away" PERFORMER "Bob Dylan" INDEX 00 03:14:44 FILE "09 - I Threw It All Away.wav" WAVE INDEX 01 00:00:00 TRACK 10 AUDIO TITLE "Love Minus Zero" PERFORMER "Bob Dylan" INDEX 00 05:20:01 FILE "10 - Love Minus Zero.wav" WAVE INDEX 01 00:00:00 FILE "11 - Maggie's Farm.wav" WAVE TRACK 11 AUDIO TITLE "Maggie's Farm" PERFORMER "Bob Dylan" INDEX 01 00:00:00 TRACK 12 AUDIO TITLE "Ballad of a Thin Man" PERFORMER "Bob Dylan" INDEX 00 05:53:18 FILE "12 - Ballad of a Thin Man.wav" WAVE INDEX 01 00:00:00 FILE "13 - Simple Twist of Fate.wav" WAVE TRACK 13 AUDIO TITLE "Simple Twist of Fate" PERFORMER "Bob Dylan" INDEX 01 00:00:00 FILE "14 - To Ramona.wav" WAVE TRACK 14 AUDIO TITLE "To Ramona" PERFORMER "Bob Dylan" INDEX 01 00:00:00 FILE "15 - If You See Her Say Hello.wav" WAVE TRACK 15 AUDIO TITLE "If You See Her Say Hello" PERFORMER "Bob Dylan" INDEX 01 00:00:00

CD3

I Don't Believe You
Going Going Gone
I'll Be Your Baby Tonight
The Times
If You See Her Say Hello
The Man In Me
I Don't Believe You
Tomorrow Is A Long Time
You're A Big Girl Now
Knockin' On Heavens Door
It's Alright Ma
Forever Young
Repossession Blues
One Of Us Must Know
Girl Of The North Country

EAC

`EAC extraction logfile from 8. May 2011, 19:48 for CD
Bob Dylan / Rundown Rehearsal III

Used drive : HP DVD Writer 1170d Adapter: 1 ID: 0
Read mode : Secure with NO C2, accurate stream, disable cache
Read offset correction : 6
Overread into Lead-In and Lead-Out : No

Used output format : C:Program FilesFLACflac.exe (User Defined Encoder)
128 kBit/s
Additional command line options : -8 -V -T "ARTIST=%a" -T "TITLE=%t" -T "ALBUM=%g" -T "DATE=%y" -T "TRACKNUMBER=%n" -T "TOTALTRACKS=%x" -T "GENRE=%m" -T "ALBUM ARTIST=%v" -T "ALBUMARTIST=%v" -T "COMMENT=EAC V0.99 prebeta 4, Secure Mode,

Other options :
Fill up missing offset samples with silence : Yes
Delete leading and trailing silent blocks : No
Installed external ASPI interface

Track 1
Filename C:Documents and SettingsdylanrundownCD 301 - I Don't Believe You.wav

Pre-gap length 0:00:02.00

Peak level 73.2 %
Track quality 100.0 %
Test CRC 3FA24968
Copy CRC 3FA24968
Copy OK

Track 2
Filename C:Documents and SettingsdylanrundownCD 302 - Going Going Gone.wav

Peak level 68.7 %
Track quality 100.0 %
Test CRC D7DEFDBD
Copy CRC D7DEFDBD
Copy OK

Track 3
Filename C:Documents and SettingsdylanrundownCD 303 - I'll Be Your Baby Tonight.wav

Peak level 48.2 %
Track quality 100.0 %
Test CRC 6C22E374
Copy CRC 6C22E374
Copy OK

Track 4
Filename C:Documents and SettingsdylanrundownCD 304 - The Times.wav

Peak level 40.6 %
Track quality 100.0 %
Test CRC 08AE7676
Copy CRC 08AE7676
Copy OK

Track 5
Filename C:Documents and SettingsdylanrundownCD 305 - If You See Her Say Hello.wav

Peak level 41.4 %
Track quality 100.0 %
Test CRC DA8F231B
Copy CRC DA8F231B
Copy OK

Track 6
Filename C:Documents and SettingsdylanrundownCD 306 - Man In Me.wav

Peak level 43.9 %
Track quality 100.0 %
Test CRC BB2733B1
Copy CRC BB2733B1
Copy OK

Track 7
Filename C:Documents and SettingsdylanrundownCD 307 - I Don't Believe You.wav

Peak level 38.8 %
Track quality 99.9 %
Test CRC DDC3CD33
Copy CRC DDC3CD33
Copy OK

Track 8
Filename C:Documents and SettingsdylanrundownCD 308 - Tomorrow Is a Long Time.wav

Peak level 40.2 %
Track quality 100.0 %
Test CRC 9018716B
Copy CRC 9018716B
Copy OK

Track 9
Filename C:Documents and SettingsdylanrundownCD 309 - You're a Big Girl Now.wav

Peak level 48.0 %
Track quality 100.0 %
Test CRC 1E57BFEB
Copy CRC 1E57BFEB
Copy OK

Track 10
Filename C:Documents and SettingsdylanrundownCD 310 - Knockin On Heavens Door.wav

Pre-gap length 0:00:00.65

Peak level 53.9 %
Track quality 100.0 %
Test CRC 18D499AC
Copy CRC 18D499AC
Copy OK

Track 11
Filename C:Documents and SettingsdylanrundownCD 311 - Its Alright Ma.wav

Pre-gap length 0:00:00.28

Peak level 52.6 %
Track quality 100.0 %
Test CRC 27D8C988
Copy CRC 27D8C988
Copy OK

Track 12
Filename C:Documents and SettingsdylanrundownCD 312 - Forever Young.wav

Pre-gap length 0:00:00.89

Peak level 43.1 %
Track quality 100.0 %
Test CRC 001C08CF
Copy CRC 001C08CF
Copy OK

Track 13
Filename C:Documents and SettingsdylanrundownCD 313 - Reposession Blues.wav

Pre-gap length 0:00:00.60

Peak level 82.2 %
Track quality 99.9 %
Test CRC 0C3179BC
Copy CRC 0C3179BC
Copy OK

Track 14
Filename C:Documents and SettingsdylanrundownCD 314 - One Of Us Must Know.wav

Peak level 80.7 %
Track quality 100.0 %
Test CRC 3C63D230
Copy CRC 3C63D230
Copy OK

Track 15
Filename C:Documents and SettingsdylanrundownCD 315 - Girl Of the North Country.wav

Peak level 64.9 %
Track quality 100.0 %
Test CRC BCE4755C
Copy CRC BCE4755C
Copy OK

No errors occured

End of status report `

CUE

REM GENRE rock REM DATE 2002 REM DISCID EE10D00F REM COMMENT "ExactAudioCopy v0.95b4" PERFORMER "Bob Dylan" TITLE "Rundown Rehearsal III" FILE "01 - I Don't Believe You.wav" WAVE TRACK 01 AUDIO TITLE "I Don't Believe You" PERFORMER "Bob Dylan" INDEX 01 00:00:00 FILE "02 - Going Going Gone.wav" WAVE TRACK 02 AUDIO TITLE "Going Going Gone" PERFORMER "Bob Dylan" INDEX 01 00:00:00 FILE "03 - I'll Be Your Baby Tonight.wav" WAVE TRACK 03 AUDIO TITLE "I'll Be Your Baby Tonight" PERFORMER "Bob Dylan" INDEX 01 00:00:00 FILE "04 - The Times.wav" WAVE TRACK 04 AUDIO TITLE "The Times" PERFORMER "Bob Dylan" INDEX 01 00:00:00 FILE "05 - If You See Her Say Hello.wav" WAVE TRACK 05 AUDIO TITLE "If You See Her Say Hello" PERFORMER "Bob Dylan" INDEX 01 00:00:00 FILE "06 - Man In Me.wav" WAVE TRACK 06 AUDIO TITLE "Man In Me" PERFORMER "Bob Dylan" INDEX 01 00:00:00 FILE "07 - I Don't Believe You.wav" WAVE TRACK 07 AUDIO TITLE "I Don't Believe You" PERFORMER "Bob Dylan" INDEX 01 00:00:00 FILE "08 - Tomorrow Is a Long Time.wav" WAVE TRACK 08 AUDIO TITLE "Tomorrow Is a Long Time" PERFORMER "Bob Dylan" INDEX 01 00:00:00 FILE "09 - You're a Big Girl Now.wav" WAVE TRACK 09 AUDIO TITLE "You're a Big Girl Now" PERFORMER "Bob Dylan" INDEX 01 00:00:00 TRACK 10 AUDIO TITLE "Knockin On Heavens Door" PERFORMER "Bob Dylan" INDEX 00 06:10:48 FILE "10 - Knockin On Heavens Door.wav" WAVE INDEX 01 00:00:00 TRACK 11 AUDIO TITLE "Its Alright Ma" PERFORMER "Bob Dylan" INDEX 00 05:38:53 FILE "11 - Its Alright Ma.wav" WAVE INDEX 01 00:00:00 TRACK 12 AUDIO TITLE "Forever Young" PERFORMER "Bob Dylan" INDEX 00 06:31:01 FILE "12 - Forever Young.wav" WAVE INDEX 01 00:00:00 TRACK 13 AUDIO TITLE "Reposession Blues" PERFORMER "Bob Dylan" INDEX 00 01:28:09 FILE "13 - Reposession Blues.wav" WAVE INDEX 01 00:00:00 FILE "14 - One Of Us Must Know.wav" WAVE TRACK 14 AUDIO TITLE "One Of Us Must Know" PERFORMER "Bob Dylan" INDEX 01 00:00:00 FILE "15 - Girl Of the North Country.wav" WAVE TRACK 15 AUDIO TITLE "Girl Of the North Country" PERFORMER "Bob Dylan" INDEX 01 00:00:00

CD4

We'd Better Talk This Over
Coming From The Heart
I Threw It All Away
Maggie's Farm
Ballad Of A Thin Man
Simple Twist Of Fate
To Ramona
If You See Her Say Hello
I Don't Believe You
Love Minus Zero
Stop Now (1)
Stop Now (2)
Coming From The Heart (2)
Bonus:
Am I Your Stepchild?
Do Right To Me Baby
Coming From The Heart (3)
More Than Flesh And Blood

EAC

`EAC extraction logfile from 8. May 2011, 21:47 for CD
Bob Dylan / Rundown Rehearsal Tapes - disc 4

Used drive : HP DVD Writer 1170d Adapter: 1 ID: 0
Read mode : Secure with NO C2, accurate stream, disable cache
Read offset correction : 6
Overread into Lead-In and Lead-Out : No

Used output format : C:Program FilesFLACflac.exe (User Defined Encoder)
128 kBit/s
Additional command line options : -8 -V -T "ARTIST=%a" -T "TITLE=%t" -T "ALBUM=%g" -T "DATE=%y" -T "TRACKNUMBER=%n" -T "TOTALTRACKS=%x" -T "GENRE=%m" -T "ALBUM ARTIST=%v" -T "ALBUMARTIST=%v" -T "COMMENT=EAC V0.99 prebeta 4, Secure Mode,

Other options :
Fill up missing offset samples with silence : Yes
Delete leading and trailing silent blocks : No
Installed external ASPI interface

Track 1
Filename C:Documents and SettingsdylanrundownCD 401 - We Better Talk This Over.wav

Pre-gap length 0:00:02.00

Peak level 84.0 %
Track quality 100.0 %
Test CRC 8AF99218
Copy CRC 8AF99218
Copy OK

Track 2
Filename C:Documents and SettingsdylanrundownCD 402 - Coming from the Heart (frag).wav

Peak level 86.5 %
Track quality 99.8 %
Test CRC 87A1A417
Copy CRC 87A1A417
Copy OK

Track 3
Filename C:Documents and SettingsdylanrundownCD 403 - I Threw it All Away.wav

Peak level 87.7 %
Track quality 100.0 %
Test CRC D8B5640C
Copy CRC D8B5640C
Copy OK

Track 4
Filename C:Documents and SettingsdylanrundownCD 404 - Maggie's Farm.wav

Peak level 94.0 %
Track quality 100.0 %
Test CRC F9339D04
Copy CRC F9339D04
Copy OK

Track 5
Filename C:Documents and SettingsdylanrundownCD 405 - Ballad of a Thin Man.wav

Pre-gap length 0:00:00.32

Peak level 86.8 %
Track quality 100.0 %
Test CRC 3D9C06C9
Copy CRC 3D9C06C9
Copy OK

Track 6
Filename C:Documents and SettingsdylanrundownCD 406 - Simple Twist of Fate.wav

Peak level 88.9 %
Track quality 99.9 %
Test CRC B3420325
Copy CRC B3420325
Copy OK

Track 7
Filename C:Documents and SettingsdylanrundownCD 407 - To Ramona.wav

Peak level 93.7 %
Track quality 100.0 %
Test CRC 955CF9D6
Copy CRC 955CF9D6
Copy OK

Track 8
Filename C:Documents and SettingsdylanrundownCD 408 - If You See Her Say Hello.wav

Peak level 93.5 %
Track quality 100.0 %
Test CRC A3831025
Copy CRC A3831025
Copy OK

Track 9
Filename C:Documents and SettingsdylanrundownCD 409 - I Don't Believe You.wav

Pre-gap length 0:00:01.41

Peak level 96.4 %
Track quality 100.0 %
Test CRC 27C00F93
Copy CRC 27C00F93
Copy OK

Track 10
Filename C:Documents and SettingsdylanrundownCD 410 - Love Minus Zero.wav

Peak level 57.6 %
Track quality 100.0 %
Test CRC 174200D9
Copy CRC 174200D9
Copy OK

Track 11
Filename C:Documents and SettingsdylanrundownCD 411 - Stop Now (1).wav

Peak level 85.5 %
Track quality 100.0 %
Test CRC 616FC27E
Copy CRC 616FC27E
Copy OK

Track 12
Filename C:Documents and SettingsdylanrundownCD 412 - Stop Now (2).wav

Pre-gap length 0:00:00.25

Peak level 75.9 %
Track quality 100.0 %
Test CRC 096F0F05
Copy CRC 096F0F05
Copy OK

Track 13
Filename C:Documents and SettingsdylanrundownCD 413 - Coming From the Heart.wav

Pre-gap length 0:00:01.61

Peak level 80.0 %
Track quality 100.0 %
Test CRC 0986B504
Copy CRC 0986B504
Copy OK

Track 14
Filename C:Documents and SettingsdylanrundownCD 414 - Am I Your Step Child.wav

Peak level 70.3 %
Track quality 100.0 %
Test CRC C6C2A901
Copy CRC C6C2A901
Copy OK

Track 15
Filename C:Documents and SettingsdylanrundownCD 415 - Do Right to Me Baby.wav

Pre-gap length 0:00:00.49

Peak level 88.0 %
Track quality 100.0 %
Test CRC BEB7AD8F
Copy CRC BEB7AD8F
Copy OK

Track 16
Filename C:Documents and SettingsdylanrundownCD 416 - Coming From the Heart (live).wav

Pre-gap length 0:00:00.81

Peak level 76.7 %
Track quality 100.0 %
Test CRC 41BFA1BF
Copy CRC 41BFA1BF
Copy OK

Track 17
Filename C:Documents and SettingsdylanrundownCD 417 - live track.wav

Pre-gap length 0:00:00.01

Peak level 70.7 %
Track quality 100.0 %
Test CRC DC478616
Copy CRC DC478616
Copy OK

No errors occured

End of status report `

CUE

REM GENRE Rock REM DATE 2002 REM DISCID F80FBE11 REM COMMENT "ExactAudioCopy v0.95b4" PERFORMER "Bob Dylan" TITLE "Rundown Rehearsal Tapes - disc 4" FILE "01 - We Better Talk This Over.wav" WAVE TRACK 01 AUDIO TITLE "We Better Talk This Over" PERFORMER "Bob Dylan" INDEX 01 00:00:00 FILE "02 - Coming from the Heart (frag).wav" WAVE TRACK 02 AUDIO TITLE "Coming from the Heart (frag)" PERFORMER "Bob Dylan" INDEX 01 00:00:00 FILE "03 - I Threw it All Away.wav" WAVE TRACK 03 AUDIO TITLE "I Threw it All Away" PERFORMER "Bob Dylan" INDEX 01 00:00:00 FILE "04 - Maggie's Farm.wav" WAVE TRACK 04 AUDIO TITLE "Maggie's Farm" PERFORMER "Bob Dylan" INDEX 01 00:00:00 TRACK 05 AUDIO TITLE "Ballad of a Thin Man" PERFORMER "Bob Dylan" INDEX 00 05:42:08 FILE "05 - Ballad of a Thin Man.wav" WAVE INDEX 01 00:00:00 FILE "06 - Simple Twist of Fate.wav" WAVE TRACK 06 AUDIO TITLE "Simple Twist of Fate" PERFORMER "Bob Dylan" INDEX 01 00:00:00 FILE "07 - To Ramona.wav" WAVE TRACK 07 AUDIO TITLE "To Ramona" PERFORMER "Bob Dylan" INDEX 01 00:00:00 FILE "08 - If You See Her Say Hello.wav" WAVE TRACK 08 AUDIO TITLE "If You See Her Say Hello" PERFORMER "Bob Dylan" INDEX 01 00:00:00 TRACK 09 AUDIO TITLE "I Don't Believe You" PERFORMER "Bob Dylan" INDEX 00 03:34:09 FILE "09 - I Don't Believe You.wav" WAVE INDEX 01 00:00:00 FILE "10 - Love Minus Zero.wav" WAVE TRACK 10 AUDIO TITLE "Love Minus Zero" PERFORMER "Bob Dylan" INDEX 01 00:00:00 FILE "11 - Stop Now (1).wav" WAVE TRACK 11 AUDIO TITLE "Stop Now (1)" PERFORMER "Bob Dylan" INDEX 01 00:00:00 TRACK 12 AUDIO TITLE "Stop Now (2)" PERFORMER "Bob Dylan" INDEX 00 05:36:26 FILE "12 - Stop Now (2).wav" WAVE INDEX 01 00:00:00 TRACK 13 AUDIO TITLE "Coming From the Heart" PERFORMER "Bob Dylan" INDEX 00 03:42:54 FILE "13 - Coming From the Heart.wav" WAVE INDEX 01 00:00:00 FILE "14 - Am I Your Step Child.wav" WAVE TRACK 14 AUDIO TITLE "Am I Your Step Child" PERFORMER "Bob Dylan" INDEX 01 00:00:00 TRACK 15 AUDIO TITLE "Do Right to Me Baby" PERFORMER "Bob Dylan" INDEX 00 02:56:30 FILE "15 - Do Right to Me Baby.wav" WAVE INDEX 01 00:00:00 TRACK 16 AUDIO TITLE "Coming From the Heart (live)" PERFORMER "Bob Dylan" INDEX 00 03:09:51 FILE "16 - Coming From the Heart (live).wav" WAVE INDEX 01 00:00:00 TRACK 17 AUDIO TITLE "live track" PERFORMER "Bob Dylan" INDEX 00 04:49:73 FILE "17 - live track.wav" WAVE INDEX 01 00:00:00


More at ibit.to
And ibit.uno
And ibit.am
And ibit.ws

Comments

Files

Bob Dylan - The Rundown Rehearsal Tapes (White Bear, 2002)Artworkback.jpg 4.9 MB
Bob Dylan - The Rundown Rehearsal Tapes (White Bear, 2002)Artworkbooklet_01.jpg 5.8 MB
Bob Dylan - The Rundown Rehearsal Tapes (White Bear, 2002)Artworkbooklet_02.jpg 1.8 MB
Bob Dylan - The Rundown Rehearsal Tapes (White Bear, 2002)Artworkbooklet_03.jpg 5.9 MB
Bob Dylan - The Rundown Rehearsal Tapes (White Bear, 2002)Artworkbooklet_04.jpg 3.4 MB
Bob Dylan - The Rundown Rehearsal Tapes (White Bear, 2002)Artworkbooklet_05.jpg 3.5 MB
Bob Dylan - The Rundown Rehearsal Tapes (White Bear, 2002)Artworkbooklet_06.jpg 4.2 MB
Bob Dylan - The Rundown Rehearsal Tapes (White Bear, 2002)Artworkcd1.jpg 1.1 MB
Bob Dylan - The Rundown Rehearsal Tapes (White Bear, 2002)Artworkcd2.jpg 1.1 MB
Bob Dylan - The Rundown Rehearsal Tapes (White Bear, 2002)Artworkcd3.jpg 1.1 MB
Bob Dylan - The Rundown Rehearsal Tapes (White Bear, 2002)Artworkcd4.jpg 1.1 MB
Bob Dylan - The Rundown Rehearsal Tapes (White Bear, 2002)Artworkcover.jpg 4.4 MB
Bob Dylan - The Rundown Rehearsal Tapes (White Bear, 2002)Artworkfront.jpg 2.5 MB
Bob Dylan - The Rundown Rehearsal Tapes (White Bear, 2002)Artworkposter.JPG 11 MB
Bob Dylan - The Rundown Rehearsal Tapes (White Bear, 2002)CD 101 - Like A Rollin Stone.flac 45 MB
Bob Dylan - The Rundown Rehearsal Tapes (White Bear, 2002)CD 102 - It's All Over Now (1).flac 7.0 MB
Bob Dylan - The Rundown Rehearsal Tapes (White Bear, 2002)CD 103 - It's All Over Now (2).flac 9.4 MB
Bob Dylan - The Rundown Rehearsal Tapes (White Bear, 2002)CD 104 - Blowin in the Wind.flac 13 MB
Bob Dylan - The Rundown Rehearsal Tapes (White Bear, 2002)CD 105 - Maggie's Farm.flac 23 MB
Bob Dylan - The Rundown Rehearsal Tapes (White Bear, 2002)CD 106 - Like A Rollin Stone (2).flac 28 MB
Bob Dylan - The Rundown Rehearsal Tapes (White Bear, 2002)CD 107 - The Man in Me.flac 21 MB
Bob Dylan - The Rundown Rehearsal Tapes (White Bear, 2002)CD 108 - To Ramona.flac 30 MB
Bob Dylan - The Rundown Rehearsal Tapes (White Bear, 2002)CD 109 - Most Likely You'll Go Your Way.flac 27 MB
Bob Dylan - The Rundown Rehearsal Tapes (White Bear, 2002)CD 110 - Simple Twist of Fate (1).flac 26 MB
Bob Dylan - The Rundown Rehearsal Tapes (White Bear, 2002)CD 111 - Leopard Skin Pillbox Hat.flac 12 MB
Bob Dylan - The Rundown Rehearsal Tapes (White Bear, 2002)CD 112 - If Not for You.flac 19 MB
Bob Dylan - The Rundown Rehearsal Tapes (White Bear, 2002)CD 113 - I Threw it All Away.flac 5.4 MB
Bob Dylan - The Rundown Rehearsal Tapes (White Bear, 2002)CD 114 - I'll Be Your Baby Tonight.flac 20 MB
Bob Dylan - The Rundown Rehearsal Tapes (White Bear, 2002)CD 115 - Going Going Gone.flac 16 MB
Bob Dylan - The Rundown Rehearsal Tapes (White Bear, 2002)CD 116 - You're Gonna Make Me Lonesome When You Go.flac 26 MB
Bob Dylan - The Rundown Rehearsal Tapes (White Bear, 2002)CD 117 - Simple Twist of Fate (2).flac 26 MB
Bob Dylan - The Rundown Rehearsal Tapes (White Bear, 2002)CD 118 - My Babe.flac 18 MB
Bob Dylan - The Rundown Rehearsal Tapes (White Bear, 2002)CD 119 - Like A Rollin Stone (3).flac 9.3 MB
Bob Dylan - The Rundown Rehearsal Tapes (White Bear, 2002)CD 1Bob Dylan - Rundown Rehearsal Tapes - disc 1.m3u 1.5 kB
Bob Dylan - The Rundown Rehearsal Tapes (White Bear, 2002)CD 1folder.jpg 45 kB
Bob Dylan - The Rundown Rehearsal Tapes (White Bear, 2002)CD 1Rundown Rehearsal Tapes - disc 1.CUE 3.1 kB
Bob Dylan - The Rundown Rehearsal Tapes (White Bear, 2002)CD 1Rundown Rehearsal Tapes - disc 1.log 5.3 kB
Bob Dylan - The Rundown Rehearsal Tapes (White Bear, 2002)CD 201 - Just Like a Woman I.flac 24 MB
Bob Dylan - The Rundown Rehearsal Tapes (White Bear, 2002)CD 202 - Just Like a Woman II.flac 31 MB
Bob Dylan - The Rundown Rehearsal Tapes (White Bear, 2002)CD 203 - Blowin' In the Wind I.flac 8.0 MB
Bob Dylan - The Rundown Rehearsal Tapes (White Bear, 2002)CD 204 - Blowin' In the Wind II.flac 32 MB
Bob Dylan - The Rundown Rehearsal Tapes (White Bear, 2002)CD 205 - I'll Be Your Baby Tonight.flac 30 MB
Bob Dylan - The Rundown Rehearsal Tapes (White Bear, 2002)CD 206 - The Man In Me.flac 26 MB
Bob Dylan - The Rundown Rehearsal Tapes (White Bear, 2002)CD 207 - You're a Big Girl Now.flac 38 MB
Bob Dylan - The Rundown Rehearsal Tapes (White Bear, 2002)CD 208 - Don't Think Twice.flac 20 MB
Bob Dylan - The Rundown Rehearsal Tapes (White Bear, 2002)CD 209 - I Threw It All Away.flac 32 MB
Bob Dylan - The Rundown Rehearsal Tapes (White Bear, 2002)CD 210 - Love Minus Zero.flac 25 MB
Bob Dylan - The Rundown Rehearsal Tapes (White Bear, 2002)CD 211 - Maggie's Farm.flac 36 MB
Bob Dylan - The Rundown Rehearsal Tapes (White Bear, 2002)CD 212 - Ballad of a Thin Man.flac 28 MB
Bob Dylan - The Rundown Rehearsal Tapes (White Bear, 2002)CD 213 - Simple Twist of Fate.flac 30 MB
Bob Dylan - The Rundown Rehearsal Tapes (White Bear, 2002)CD 214 - To Ramona.flac 28 MB
Bob Dylan - The Rundown Rehearsal Tapes (White Bear, 2002)CD 215 - If You See Her Say Hello.flac 22 MB
Bob Dylan - The Rundown Rehearsal Tapes (White Bear, 2002)CD 2Bob Dylan - Rundown Rehearsals 2.m3u 1.1 kB
Bob Dylan - The Rundown Rehearsal Tapes (White Bear, 2002)CD 2folder.jpg 45 kB
Bob Dylan - The Rundown Rehearsal Tapes (White Bear, 2002)CD 2Rundown Rehearsals 2.CUE 2.4 kB
Bob Dylan - The Rundown Rehearsal Tapes (White Bear, 2002)CD 2Rundown Rehearsals 2.log 4.3 kB
Bob Dylan - The Rundown Rehearsal Tapes (White Bear, 2002)CD 301 - I Don't Believe You.flac 32 MB
Bob Dylan - The Rundown Rehearsal Tapes (White Bear, 2002)CD 302 - Going Going Gone.flac 28 MB
Bob Dylan - The Rundown Rehearsal Tapes (White Bear, 2002)CD 303 - I'll Be Your Baby Tonight.flac 24 MB
Bob Dylan - The Rundown Rehearsal Tapes (White Bear, 2002)CD 304 - The Times.flac 28 MB
Bob Dylan - The Rundown Rehearsal Tapes (White Bear, 2002)CD 305 - If You See Her Say Hello.flac 24 MB
Bob Dylan - The Rundown Rehearsal Tapes (White Bear, 2002)CD 306 - Man In Me.flac 24 MB
Bob Dylan - The Rundown Rehearsal Tapes (White Bear, 2002)CD 307 - I Don't Believe You.flac 25 MB
Bob Dylan - The Rundown Rehearsal Tapes (White Bear, 2002)CD 308 - Tomorrow Is a Long Time.flac 24 MB
Bob Dylan - The Rundown Rehearsal Tapes (White Bear, 2002)CD 309 - You're a Big Girl Now.flac 35 MB
Bob Dylan - The Rundown Rehearsal Tapes (White Bear, 2002)CD 310 - Knockin On Heavens Door.flac 32 MB
Bob Dylan - The Rundown Rehearsal Tapes (White Bear, 2002)CD 311 - Its Alright Ma.flac 39 MB
Bob Dylan - The Rundown Rehearsal Tapes (White Bear, 2002)CD 312 - Forever Young.flac 7.8 MB
Bob Dylan - The Rundown Rehearsal Tapes (White Bear, 2002)CD 313 - Reposession Blues.flac 27 MB
Bob Dylan - The Rundown Rehearsal Tapes (White Bear, 2002)CD 314 - One Of Us Must Know.flac 34 MB
Bob Dylan - The Rundown Rehearsal Tapes (White Bear, 2002)CD 315 - Girl Of the North Country.flac 29 MB
Bob Dylan - The Rundown Rehearsal Tapes (White Bear, 2002)CD 3Bob Dylan - Rundown Rehearsal III.m3u 1.1 kB
Bob Dylan - The Rundown Rehearsal Tapes (White Bear, 2002)CD 3folder.jpg 45 kB
Bob Dylan - The Rundown Rehearsal Tapes (White Bear, 2002)CD 3Rundown Rehearsal III.CUE 2.4 kB
Bob Dylan - The Rundown Rehearsal Tapes (White Bear, 2002)CD 3Rundown Rehearsal III.log 4.3 kB
Bob Dylan - The Rundown Rehearsal Tapes (White Bear, 2002)CD 401 - We Better Talk This Over.flac 16 MB
Bob Dylan - The Rundown Rehearsal Tapes (White Bear, 2002)CD 402 - Coming from the Heart (frag).flac 7.0 MB
Bob Dylan - The Rundown Rehearsal Tapes (White Bear, 2002)CD 403 - I Threw it All Away.flac 35 MB
Bob Dylan - The Rundown Rehearsal Tapes (White Bear, 2002)CD 404 - Maggie's Farm.flac 37 MB
Bob Dylan - The Rundown Rehearsal Tapes (White Bear, 2002)CD 405 - Ballad of a Thin Man.flac 30 MB
Bob Dylan - The Rundown Rehearsal Tapes (White Bear, 2002)CD 406 - Simple Twist of Fate.flac 32 MB
Bob Dylan - The Rundown Rehearsal Tapes (White Bear, 2002)CD 407 - To Ramona.flac 30 MB
Bob Dylan - The Rundown Rehearsal Tapes (White Bear, 2002)CD 408 - If You See Her Say Hello.flac 24 MB
Bob Dylan - The Rundown Rehearsal Tapes (White Bear, 2002)CD 409 - I Don't Believe You.flac 14 MB
Bob Dylan - The Rundown Rehearsal Tapes (White Bear, 2002)CD 410 - Love Minus Zero.flac 25 MB
Bob Dylan - The Rundown Rehearsal Tapes (White Bear, 2002)CD 411 - Stop Now (1).flac 39 MB
Bob Dylan - The Rundown Rehearsal Tapes (White Bear, 2002)CD 412 - Stop Now (2).flac 25 MB
Bob Dylan - The Rundown Rehearsal Tapes (White Bear, 2002)CD 413 - Coming From the Heart.flac 34 MB
Bob Dylan - The Rundown Rehearsal Tapes (White Bear, 2002)CD 414 - Am I Your Step Child.flac 18 MB
Bob Dylan - The Rundown Rehearsal Tapes (White Bear, 2002)CD 415 - Do Right to Me Baby.flac 19 MB
Bob Dylan - The Rundown Rehearsal Tapes (White Bear, 2002)CD 416 - Coming From the Heart (live).flac 29 MB
Bob Dylan - The Rundown Rehearsal Tapes (White Bear, 2002)CD 417 - live track.flac 21 MB
Bob Dylan - The Rundown Rehearsal Tapes (White Bear, 2002)CD 4Bob Dylan - Rundown Rehearsal Tapes - disc 4.m3u 1.3 kB
Bob Dylan - The Rundown Rehearsal Tapes (White Bear, 2002)CD 4folder.jpg 45 kB
Bob Dylan - The Rundown Rehearsal Tapes (White Bear, 2002)CD 4Rundown Rehearsal Tapes - disc 4.CUE 2.7 kB
Bob Dylan - The Rundown Rehearsal Tapes (White Bear, 2002)CD 4Rundown Rehearsal Tapes - disc 4.log 4.8 kB

Stream

Downloading Seeding Bob Dylan - The Rundown Rehearsal Tapes (White Bear, 2002) from to 0 peers.
of
0 b/s / ↗0 b/s