• -
  • -
  • done
  • Bob Dylan - Forever Young (CBS, 1990)
  • 322 MB
  • sir.pere
  • Bob Dylan Forever Young CBS 1990
  • Зарубежный Rock

Description

Bob Dylan / Forever Young

image

Жанр : Folk-Rock

Носитель : CD

Страна-производитель диска (релиза) : UK & Europe

Год издания : 1990

Издатель (лейбл) : CBS

Номер по каталогу : XPCD 116

Страна исполнителя (группы) : USA

Аудиокодек : FLAC (*.flac)

Тип рипа : tracks+.cue

Источник : Сеть

Наличие сканов в содержимом раздачи : нет

Треклист

01 - Political World
02 - The Times They Are A Changing
03 - Visions Of Joanna
04 - Its All Over Now Baby Blue
05 - Everything Is Broken
06 - Rainy Day Woman Nos 12 And 35
07 - Forever Young
08 - Man In A Long Black Coat
09 - Lay Lady Lay
10 - Subterranean Homesick Blues
11 - A Hard Rains Gonna Fall
12 - Blowin In The Wind
13 - Chimes Of Freedom

Лог создания рипа

`Exact Audio Copy V1.2 from 12. August 2016

EAC extraction logfile from 2. June 2018, 15:09

Bob Dylan / Forever Young

Used drive : HL-DT-STDVD+-RW GU90N Adapter: 1 ID: 1

Read mode : Secure
Utilize accurate stream : Yes
Defeat audio cache : Yes
Make use of C2 pointers : No

Read offset correction : 102
Overread into Lead-In and Lead-Out : No
Fill up missing offset samples with silence : Yes
Delete leading and trailing silent blocks : No
Null samples used in CRC calculations : Yes
Used interface : Native Win32 interface for Win NT & 2000
Gap handling : Appended to previous track

Used output format : User Defined Encoder
Selected bitrate : 1024 kBit/s
Quality : High
Add ID3 tag : No
Command line compressor : C:Program Files (x86)Exact Audio CopyFlacflac.exe
Additional command line options : -8 -V -T "ARTIST=%artist%" -T "TITLE=%src%" -T "ALBUM=%albumsrc%" -T "DATE=%year%" -T "TRACKNUMBER=%tracknr%" -T "GENRE=%genre%" -T "PERFORMER=%albuminterpret%" -T "COMPOSER=%composer%" %haslyrics%–tag-from-file=LYRICS="%lyricsfile%"%haslyrics% -T "ALBUMARTIST=%albumartist%" -T "DISCNUMBER=%cdnumber%" -T "TOTALDISCS=%totalcds%" -T "TOTALTRACKS=%numtracks%" -T "COMMENT=%comment%" %source% -o %dest%

TOC of the extracted CD

Track | Start | Length | Start sector | End sector
––––––––––––––––––––––––––––-
1 | 0:00.00 | 3:46.05 | 0 | 16954
2 | 3:46.05 | 3:14.32 | 16955 | 31536
3 | 7:00.37 | 7:29.70 | 31537 | 65281
4 | 14:30.32 | 5:40.73 | 65282 | 90854
5 | 20:11.30 | 3:12.22 | 90855 | 105276
6 | 23:23.52 | 4:35.73 | 105277 | 125974
7 | 27:59.50 | 2:03.27 | 125975 | 135226
8 | 30:03.02 | 4:34.48 | 135227 | 155824
9 | 34:37.50 | 3:18.52 | 155825 | 170726
10 | 37:56.27 | 2:19.03 | 170727 | 181154
11 | 40:15.30 | 6:51.22 | 181155 | 212001
12 | 47:06.52 | 2:47.45 | 212002 | 224571
13 | 49:54.22 | 7:10.50 | 224572 | 256871

Track 1

Filename C:UsersianDesktopBob Dylan - Forever Young (1990) [FLAC] {Promo Sampler}01 - Political World.wav

Pre-gap length 0:00:02.00

Peak level 75.5 %
Extraction speed 0.9 X
Track quality 99.9 %
Test CRC 7E5B1788
Copy CRC 7E5B1788
Copy OK

Track 2

Filename C:UsersianDesktopBob Dylan - Forever Young (1990) [FLAC] {Promo Sampler}02 - The Times they are a Changing.wav

Pre-gap length 0:00:02.73

Peak level 67.7 %
Extraction speed 1.2 X
Track quality 100.0 %
Test CRC 5ED19887
Copy CRC 5ED19887
Copy OK

Track 3

Filename C:UsersianDesktopBob Dylan - Forever Young (1990) [FLAC] {Promo Sampler}03 - Visions of Joanna.wav

Pre-gap length 0:00:02.69

Peak level 61.3 %
Extraction speed 1.4 X
Track quality 100.0 %
Test CRC 04930C8C
Copy CRC 04930C8C
Copy OK

Track 4

Filename C:UsersianDesktopBob Dylan - Forever Young (1990) [FLAC] {Promo Sampler}04 - Its all over now Baby Blue.wav

Pre-gap length 0:00:01.56

Peak level 51.5 %
Extraction speed 1.5 X
Track quality 99.9 %
Test CRC 6ECB5881
Copy CRC 6ECB5881
Copy OK

Track 5

Filename C:UsersianDesktopBob Dylan - Forever Young (1990) [FLAC] {Promo Sampler}05 - Everything is Broken.wav

Pre-gap length 0:00:02.33

Peak level 78.3 %
Extraction speed 1.6 X
Track quality 100.0 %
Test CRC 7AB87A3D
Copy CRC 7AB87A3D
Copy OK

Track 6

Filename C:UsersianDesktopBob Dylan - Forever Young (1990) [FLAC] {Promo Sampler}06 - Rainy Day Woman Nos 12 and 35.wav

Pre-gap length 0:00:01.89

Peak level 70.8 %
Extraction speed 1.8 X
Track quality 100.0 %
Test CRC 0D9DA7B1
Copy CRC 0D9DA7B1
Copy OK

Track 7

Filename C:UsersianDesktopBob Dylan - Forever Young (1990) [FLAC] {Promo Sampler}07 - Forever Young.wav

Pre-gap length 0:00:03.00

Peak level 56.1 %
Extraction speed 1.6 X
Track quality 100.0 %
Test CRC 27BF3FBD
Copy CRC 27BF3FBD
Copy OK

Track 8

Filename C:UsersianDesktopBob Dylan - Forever Young (1990) [FLAC] {Promo Sampler}08 - Man in a Long Black Coat.wav

Pre-gap length 0:00:01.93

Peak level 74.6 %
Extraction speed 1.9 X
Track quality 100.0 %
Test CRC AD778A21
Copy CRC AD778A21
Copy OK

Track 9

Filename C:UsersianDesktopBob Dylan - Forever Young (1990) [FLAC] {Promo Sampler}09 - Lay Lady Lay.wav

Pre-gap length 0:00:02.06

Peak level 65.7 %
Extraction speed 1.9 X
Track quality 100.0 %
Test CRC 3A8ACD43
Copy CRC 3A8ACD43
Copy OK

Track 10

Filename C:UsersianDesktopBob Dylan - Forever Young (1990) [FLAC] {Promo Sampler}10 - Subterranean Homesick Blues.wav

Pre-gap length 0:00:02.33

Peak level 66.4 %
Extraction speed 1.8 X
Track quality 100.0 %
Test CRC 19E2EC66
Copy CRC 19E2EC66
Copy OK

Track 11

Filename C:UsersianDesktopBob Dylan - Forever Young (1990) [FLAC] {Promo Sampler}11 - A Hard Rains Gonna Fall.wav

Pre-gap length 0:00:01.70

Peak level 58.1 %
Extraction speed 2.2 X
Track quality 100.0 %
Test CRC 50E40B69
Copy CRC 50E40B69
Copy OK

Track 12

Filename C:UsersianDesktopBob Dylan - Forever Young (1990) [FLAC] {Promo Sampler}12 - Blowin in the Wind.wav

Pre-gap length 0:00:01.73

Peak level 69.1 %
Extraction speed 2.0 X
Track quality 100.0 %
Test CRC D746F843
Copy CRC D746F843
Copy OK

Track 13

Filename C:UsersianDesktopBob Dylan - Forever Young (1990) [FLAC] {Promo Sampler}13 - Chimes of Freedom.wav

Pre-gap length 0:00:01.62

Peak level 58.1 %
Extraction speed 2.4 X
Track quality 100.0 %
Test CRC 9B26BA7C
Copy CRC 9B26BA7C
Copy OK

No errors occurred

End of status report

–– CUETools DB Plugin V2.1.6

[CTDB TOCID: Cy313ctrIrqh1al3nI.tAstEoMo-] disk not present in database
Submit result: Cy313ctrIrqh1al3nI.tAstEoMo- has been uploaded

==== Log checksum 8CCCA794BE060215A9EE10A8833ACC1C68160D2D5B5ACAACD6F9488ED9F16FBB ==== `

Содержание индексной карты (.CUE)

REM GENRE Folk/Rock REM DATE 1990 REM DISCID B70D600D REM COMMENT "ExactAudioCopy v1.2" CATALOG 0000000000000 PERFORMER "Bob Dylan" TITLE "Forever Young" REM COMPOSER "" FILE "01 - Political World.wav" WAVE TRACK 01 AUDIO TITLE "Political World" PERFORMER "Bob Dylan" REM COMPOSER "" INDEX 01 00:00:00 TRACK 02 AUDIO TITLE "The Times they are a Changing" PERFORMER "Bob Dylan" REM COMPOSER "" INDEX 00 03:43:25 FILE "02 - The Times they are a Changing.wav" WAVE INDEX 01 00:00:00 TRACK 03 AUDIO TITLE "Visions of Joanna" PERFORMER "Bob Dylan" REM COMPOSER "" INDEX 00 03:11:55 FILE "03 - Visions of Joanna.wav" WAVE INDEX 01 00:00:00 TRACK 04 AUDIO TITLE "Its all over now Baby Blue" PERFORMER "Bob Dylan" REM COMPOSER "" INDEX 00 07:28:28 FILE "04 - Its all over now Baby Blue.wav" WAVE INDEX 01 00:00:00 TRACK 05 AUDIO TITLE "Everything is Broken" PERFORMER "Bob Dylan" REM COMPOSER "" INDEX 00 05:38:48 FILE "05 - Everything is Broken.wav" WAVE INDEX 01 00:00:00 TRACK 06 AUDIO TITLE "Rainy Day Woman Nos 12 and 35" PERFORMER "Bob Dylan" REM COMPOSER "" INDEX 00 03:10:30 FILE "06 - Rainy Day Woman Nos 12 and 35.wav" WAVE INDEX 01 00:00:00 TRACK 07 AUDIO TITLE "Forever Young" PERFORMER "Bob Dylan" REM COMPOSER "" INDEX 00 04:32:73 FILE "07 - Forever Young.wav" WAVE INDEX 01 00:00:00 TRACK 08 AUDIO TITLE "Man in a Long Black Coat" PERFORMER "Bob Dylan" REM COMPOSER "" INDEX 00 02:01:32 FILE "08 - Man in a Long Black Coat.wav" WAVE INDEX 01 00:00:00 TRACK 09 AUDIO TITLE "Lay Lady Lay" PERFORMER "Bob Dylan" REM COMPOSER "" INDEX 00 04:32:43 FILE "09 - Lay Lady Lay.wav" WAVE INDEX 01 00:00:00 TRACK 10 AUDIO TITLE "Subterranean Homesick Blues" PERFORMER "Bob Dylan" REM COMPOSER "" INDEX 00 03:16:27 FILE "10 - Subterranean Homesick Blues.wav" WAVE INDEX 01 00:00:00 TRACK 11 AUDIO TITLE "A Hard Rains Gonna Fall" PERFORMER "Bob Dylan" REM COMPOSER "" INDEX 00 02:17:25 FILE "11 - A Hard Rains Gonna Fall.wav" WAVE INDEX 01 00:00:00 TRACK 12 AUDIO TITLE "Blowin in the Wind" PERFORMER "Bob Dylan" REM COMPOSER "" INDEX 00 06:49:42 FILE "12 - Blowin in the Wind.wav" WAVE INDEX 01 00:00:00 TRACK 13 AUDIO TITLE "Chimes of Freedom" PERFORMER "Bob Dylan" REM COMPOSER "" INDEX 00 02:45:73 FILE "13 - Chimes of Freedom.wav" WAVE INDEX 01 00:00:00


More at ibit.to
And ibit.uno
And ibit.am
And ibit.ws

Comments

Files

Bob Dylan - Forever Young (CBS, 1990)Artworkback.jpg 1.5 MB
Bob Dylan - Forever Young (CBS, 1990)Artworkcd.jpg 1.1 MB
Bob Dylan - Forever Young (CBS, 1990)Artworkfront.jpg 959 kB
Bob Dylan - Forever Young (CBS, 1990)Artworktray.jpg 1.6 MB
Bob Dylan - Forever Young (CBS, 1990)01 - Political World.flac 21 MB
Bob Dylan - Forever Young (CBS, 1990)02 - The Times they are a Changing.flac 20 MB
Bob Dylan - Forever Young (CBS, 1990)03 - Visions of Joanna.flac 40 MB
Bob Dylan - Forever Young (CBS, 1990)04 - Its all over now Baby Blue.flac 29 MB
Bob Dylan - Forever Young (CBS, 1990)05 - Everything is Broken.flac 20 MB
Bob Dylan - Forever Young (CBS, 1990)06 - Rainy Day Woman Nos 12 and 35.flac 29 MB
Bob Dylan - Forever Young (CBS, 1990)07 - Forever Young.flac 9.1 MB
Bob Dylan - Forever Young (CBS, 1990)08 - Man in a Long Black Coat.flac 21 MB
Bob Dylan - Forever Young (CBS, 1990)09 - Lay Lady Lay.flac 18 MB
Bob Dylan - Forever Young (CBS, 1990)10 - Subterranean Homesick Blues.flac 14 MB
Bob Dylan - Forever Young (CBS, 1990)11 - A Hard Rains Gonna Fall.flac 39 MB
Bob Dylan - Forever Young (CBS, 1990)12 - Blowin in the Wind.flac 15 MB
Bob Dylan - Forever Young (CBS, 1990)13 - Chimes of Freedom.flac 40 MB
Bob Dylan - Forever Young (CBS, 1990)Bob Dylan - Forever Young.log 14 kB
Bob Dylan - Forever Young (CBS, 1990)Forever Young.cue 2.6 kB
Bob Dylan - Forever Young (CBS, 1990)thumb.jpg 7.0 kB

Stream

Downloading Seeding Bob Dylan - Forever Young (CBS, 1990) from to 0 peers.
of
0 b/s / ↗0 b/s