• 1
  • -
  • done
ondemand_video
  • Blinded.by.the.Light.BDRemux.1080p.pk.mkv
  • 23 GB
  • pk5360114
  • Blinded Light BDRemux 1080p mkv
  • HD Video
71%

Blinded by the Light (2019)

  • Drama Comedy Music
  • In 1987, during the austere days of Thatcher’s Britain, a teenager learns to live life, understand his family, and find his own voice through the music of Bruce Springsteen.

    expand_more
    English

    Description

    Ослеплённый светом / Blinded by the Light

    «For Anyone Who Has Ever Wanted to Dream. You're Not Alone»

    image

    Страна : Великобритания, США

    Жанр : Драма, комедия, музыка

    Год выпуска : 2019

    Продолжительность : 01:57:46


    Перевод : Профессиональный (дублированный) |

    (iTunes)

    Cубтитры : Русские (Forced, full), Английские (Full, SDH)

    Оригинальная аудиодорожка : Английский


    Режиссёр : Гуриндер Чадха / Gurinder Chadha

    В ролях : Билли Бэррэтт, Ронак Сингх Чадха Бергес, Вивеик Калра, Ли Барнетт, Дин-Чарльз Чепмен, Кит Рив, Дэвид Хейман, Кулвиндер Гир, Nikita Mehta, Роб Брайдон

    Описание : 1980-е: эпоха диско и холодной войны, расцвет рейганомики и тэтчеризма, полное контрастов время. Но для Джаведа, подростка из живущей в Англии индийской семьи, это эпоха беспросветных школьных будней и тупиковых поисков себя. Однако выход нашёлся, когда в руки Джареда попала аудиокассета с песнями Брюса Спрингстина.


    image image image


    Тип релиза : BDRemux 1080p

    Контейнер : MKV


    Видео : MPEG-4 AVC Video 21875 kbps 1080p / 23,976 fps / 16:9 / High Profile 4.1

    Аудио 1: Русский | AC-3, 6 ch, 384 Kbps, 48.0 KHz

    Аудио 2: Английский | TrueHD, 8.0 ch, 3703 Kbps, 48.0 KHz

    Аудио 3: Английский | AC-3, 6 ch, 448 Kbps, 48.0 KHz


    MediaInfo

    Код:

    General
    Unique ID                                : 135580338385308484618044864884870994872 (0x65FFD2C7803A3E502919A90A1F87DBB8)
    Complete name                            : /Volumes/Promise Pegasus/Blinded.by.the.Light.BDRemux.1080p.pk.mkv
    Format                                   : Matroska
    Format version                           : Version 4
    File size                                : 21.6 GiB
    Duration                                 : 1h 57mn
    Overall bit rate mode                    : Variable
    Overall bit rate                         : 26.2 Mbps
    Movie name                               : Blinded by the Light BDRemux 1080p pk
    Encoded date                             : UTC 2020-02-14 21:39:59
    Writing application                      : mkvmerge v43.0.0 ('The Quartermaster') 64-bit
    Writing library                          : libebml v1.3.10 + libmatroska v1.5.2
    Cover                                    : Yes
    Attachments                              : cover.jpg

    Video
    ID                                       : 1
    Format                                   : AVC
    Format/Info                              : Advanced Video Codec
    Format profile                           : [email protected]
    Format settings                          : CABAC / 4 Ref Frames
    Format settings, CABAC                   : Yes
    Format settings, ReFrames                : 4 frames
    Codec ID                                 : V_MPEG4/ISO/AVC
    Duration                                 : 1h 57mn
    Bit rate mode                            : Variable
    Bit rate                                 : 21.6 Mbps
    Maximum bit rate                         : 24.0 Mbps
    Width                                    : 1 920 pixels
    Height                                   : 1 080 pixels
    Display aspect ratio                     : 16:9
    Frame rate mode                          : Constant
    Frame rate                               : 23.976 (24000/1001) fps
    Color space                              : YUV
    Chroma subsampling                       : 4:2:0
    Bit depth                                : 8 bits
    Scan type                                : Progressive
    Bits/(Pixel*Frame)                       : 0.434
    Stream size                              : 17.8 GiB (82%)
    Language                                 : English
    Default                                  : Yes
    Forced                                   : No

    Audio #1
    ID                                       : 2
    Format                                   : AC-3
    Format/Info                              : Audio Coding 3
    Commercial name                          : Dolby Digital
    Codec ID                                 : A_AC3
    Duration                                 : 1h 57mn
    Bit rate mode                            : Constant
    Bit rate                                 : 384 Kbps
    Channel(s)                               : 6 channels
    Channel layout                           : L R C LFE Ls Rs
    Sampling rate                            : 48.0 KHz
    Frame rate                               : 31.250 fps (1536 SPF)
    Compression mode                         : Lossy
    Stream size                              : 323 MiB (1%)
    Title                                    : Russian Dub iTunes
    Language                                 : Russian
    Service kind                             : Complete Main
    Default                                  : Yes
    Forced                                   : No

    Audio #2
    ID                                       : 3
    Format                                   : MLP FBA 16-ch
    Format/Info                              : Meridian Lossless Packing FBA with 16-channel presentation
    Commercial name                          : Dolby TrueHD with Dolby Atmos
    Codec ID                                 : A_TRUEHD
    Duration                                 : 1h 57mn
    Bit rate mode                            : Variable
    Bit rate                                 : 3 703 Kbps
    Maximum bit rate                         : 5 883 Kbps
    Channel(s)                               : 8 channels
    Channel layout                           : L R C LFE Ls Rs Lb Rb
    Sampling rate                            : 48.0 KHz
    Frame rate                               : 1 200.000 fps (40 SPF)
    Compression mode                         : Lossless
    Stream size                              : 3.05 GiB (14%)
    Title                                    : English Original TrueHD
    Language                                 : English
    Default                                  : No
    Forced                                   : No
    Number of dynamic objects                : 15
    Bed channel count                        : 1 channel
    Bed channel configuration                : LFE

    Audio #3
    ID                                       : 4
    Format                                   : AC-3
    Format/Info                              : Audio Coding 3
    Commercial name                          : Dolby Digital
    Codec ID                                 : A_AC3
    Duration                                 : 1h 57mn
    Bit rate mode                            : Constant
    Bit rate                                 : 448 Kbps
    Channel(s)                               : 6 channels
    Channel layout                           : L R C LFE Ls Rs
    Sampling rate                            : 48.0 KHz
    Frame rate                               : 31.250 fps (1536 SPF)
    Compression mode                         : Lossy
    Stream size                              : 377 MiB (2%)
    Title                                    : English Original
    Language                                 : English
    Service kind                             : Complete Main
    Default                                  : No
    Forced                                   : No

    Text #1
    ID                                       : 5
    Format                                   : UTF-8
    Codec ID                                 : S_TEXT/UTF8
    Codec ID/Info                            : UTF-8 Plain Text
    Duration                                 : 1h 51mn
    Bit rate                                 : 2 bps
    Count of elements                        : 22
    Stream size                              : 2.44 KiB (0%)
    Title                                    : Russian forced
    Language                                 : Russian
    Default                                  : Yes
    Forced                                   : No

    Text #2
    ID                                       : 6
    Format                                   : UTF-8
    Codec ID                                 : S_TEXT/UTF8
    Codec ID/Info                            : UTF-8 Plain Text
    Duration                                 : 1h 51mn
    Bit rate                                 : 95 bps
    Count of elements                        : 1463
    Stream size                              : 77.7 KiB (0%)
    Title                                    : Russian full
    Language                                 : Russian
    Default                                  : No
    Forced                                   : No

    Text #3
    ID                                       : 7
    Format                                   : UTF-8
    Codec ID                                 : S_TEXT/UTF8
    Codec ID/Info                            : UTF-8 Plain Text
    Duration                                 : 1h 49mn
    Bit rate                                 : 54 bps
    Count of elements                        : 1423
    Stream size                              : 43.8 KiB (0%)
    Title                                    : English full
    Language                                 : English
    Default                                  : No
    Forced                                   : No

    Text #4
    ID                                       : 8
    Format                                   : UTF-8
    Codec ID                                 : S_TEXT/UTF8
    Codec ID/Info                            : UTF-8 Plain Text
    Duration                                 : 1h 50mn
    Bit rate                                 : 61 bps
    Count of elements                        : 1636
    Stream size                              : 49.8 KiB (0%)
    Title                                    : English SDH
    Language                                 : English
    Default                                  : No
    Forced                                   : No

    Menu
    00:00:00.000                             : en:Chapter 01
    00:11:10.211                             : en:Chapter 02
    00:20:03.661                             : en:Chapter 03
    00:30:13.270                             : en:Chapter 04
    00:39:49.596                             : en:Chapter 05
    00:48:52.054                             : en:Chapter 06
    00:58:27.212                             : en:Chapter 07
    01:08:39.490                             : en:Chapter 08
    01:19:01.820                             : en:Chapter 09
    01:28:16.791                             : en:Chapter 10
    01:40:07.043                             : en:Chapter 11
    01:51:37.399                             : en:Chapter 12

    Скриншоты

    image image image image image image


    More at ibit.to
    And ibit.uno
    And ibit.am
    And ibit.ws

    Reviews

    Perhaps it was the “I feel like I’ve seen this before” factor, but ‘Blinded By The Light’ just didn’t resonate. It lacked the humour, the heart and the finesse of Chadha’s previous films, and therefore it falls short. - Jess Fenton Read Jess' full article... https://www.maketheswitch.com.au/article/review-blinded-by-the-light-the-spiritual-sequel-to-bend-it-like-beckham Head to https://www.maketheswitch.com.au/sff for more Sydney Film Festival reviews.

    The importance of representation isn't to speak exclusively to one crowd but to demonstrate that deep down, we all deal with the same issues and problems, regardless of ability, race, gender, religion or any of the other attributes that are used to divide us. This movie isn't just about a young boy discovering his identity as a British Pakistani Muslim, it goes beyond that and depicts a coming of age struggle between parent and child. Springsteen's soundtrack works as a baseline around Javid's transition from boy to man, through the pursuit of him achieving his dream, which beautifully represents mid 80's Britain as this bleak and hopeless space that is being held together with prayers and dreams of better tomorrows. My favourite part is the moment Springsteen's music is introduced, mirroring a similar reaction to mine, at a similar age to an unknown band, The Airborne Toxic Event, who were also greatly inspired by The Boss. <span style="background-color: black"> Lyrics flash on screen while a storm brews outside, energy radiates from the screen while I'm on Fire rings in your ears. </span> The magic of Cinema never felt more alive to me than it did in those few brief minutes. The final 30 minutes of the movie had me physically crying, an honour held by a select few, the most touching aspects were in relation to the cultural heritage of the characters and felt very close to home. Overall, this movie hits the spot if you're looking for a feelgood film to break up the week but please don't miss the opportunity to watch this in the cinema where you can truly experience the movie at its best.

    Comments

    Files

    Blinded.by.the.Light.BDRemux.1080p.pk.mkv 23 GB

    Stream

    Downloading Seeding Blinded.by.the.Light.BDRemux.1080p.pk.mkv from to 0 peers.
    of
    0 b/s / ↗0 b/s