• 2,147,483,647
  • 7
Downloadondemand_video

Description

An Italian-American family move into a house built on an ancient Indian burial ground. The oldest son is possessed by an evil spirit| and is forced to murder hisfamily. The family's priest feels responsible| and tries to save the possessed boy's soul.

http://imdb.com/title/tt0083550/

image

image

image

image

image

image

MediaInfo:

Video

ID                                       : 1

Format                                   : AVC

Format/Info                              : Advanced Video Codec

Format profile                           : [email protected]

Format settings, CABAC                   : Yes

Format settings, ReFrames                : 4 frames

Codec ID                                 : V_MPEG4/ISO/AVC

Duration                                 : 1h 44mn

Bit rate                                 : 10 000 Kbps

Width                                    : 1 920 pixels

Height                                   : 1 040 pixels

Display aspect ratio                     : 1.85:1

Frame rate mode                          : Constant

Frame rate                               : 23.976 fps

Color space                              : YUV

Chroma subsampling                       : 4:2:0

Bit depth                                : 8 bits

Scan type                                : Progressive

Bits/(Pixel*Frame)                       : 0.209

Stream size                              : 7.05 GiB (85%)

Writing library                          : x264 core 130 r2273 b3065e6

Encoding settings                        : cabac=1 / ref=3 / deblock=1:0:0 / analyse=0x3:0x113 / me=hex / subme=7 / psy=1 / psyrd=1.00:0.00 / mixedref=1 / merange=16 / chromame=1 / trellis=1 / 8x8dct=1 / cqm=0 / deadzone=21,11 / fastpskip=1 / chromaqpoffset=-2 / threads=12 / lookaheadthreads=2 / slicedthreads=0 / nr=0 / decimate=1 / interlaced=0 / bluraycompat=0 / constrainedintra=0 / bframes=3 / bpyramid=2 / badapt=1 / bbias=0 / direct=1 / weightb=1 / opengop=0 / weightp=2 / keyint=240 / keyintmin=24 / scenecut=40 / intrarefresh=0 / rclookahead=40 / rc=abr / mbtree=1 / bitrate=10000 / ratetol=1.0 / qcomp=0.60 / qpmin=0 / qpmax=69 / qpstep=4 / vbvmaxrate=62500 / vbvbufsize=78125 / nalhrd=none / ipratio=1.40 / aq=1:1.00

Language                                 : English

Default                                  : Yes

Forced                                   : No

Color range                              : Limited

Color primaries                          : BT.709

Transfer characteristics                 : BT.709

Matrix coefficients                      : BT.709

Audio

ID                                       : 2

Format                                   : DTS

Format/Info                              : Digital Theater Systems

Mode                                     : 16

Format settings, Endianness              : Big

Codec ID                                 : A_DTS

Duration                                 : 1h 44mn

Bit rate mode                            : Constant

Bit rate                                 : 1 509 Kbps

Channel(s)                               : 6 channels

Channel positions                        : Front: L C R, Side: L R, LFE

Sampling rate                            : 48.0 KHz

Bit depth                                : 24 bits

Compression mode                         : Lossy

Stream size                              : 1.10 GiB (13%)

Language                                 : English

Default                                  : Yes

Forced                                   : No


More at ibit.to
And ibit.uno
And ibit.am
And ibit.ws

Comments

4 years ago

Many thanks.

Files

Amityville.2.The.Possession.1982.1080p.BluRay.x264.DTS-FGT.mkv 8.3 GB
Amityville.2.The.Possession.1982.1080p.BluRay.x264.DTS-FGT.nfo 4.0 kB
RARBG.com.txt 30 B

Stream

Downloading Seeding Amityville.2.The.Possession.1982.1080p.BluRay.x264.DTS-FGT from to 0 peers.
of
0 b/s / ↗0 b/s