• -
  • -
  • done
  • Akiko Yano - Tadaima. (1981, 2018, Wewantsounds)
  • 242 MB
  • fiks22
  • Akiko Yano Tadaima 1981 2018 Wewantsounds
  • Зарубежная поп-музыка

Description

Akiko Yano - Tadaima.

image

Жанр : JPop, New Wave

Носитель : CD

Страна-производитель диска (релиза) : Франция

Год издания : 1981 (2018)

Издатель (лейбл) : Wewantsounds

Номер по каталогу : WWSCD16

Страна исполнителя (группы) : Япония

Аудиокодек : FLAC (*.flac)

Тип рипа : tracks+.cue

Продолжительность : 00:38:26

Источник : glabisto

Наличие сканов в содержимом раздачи : нет

Треклист :
01. Tadaima (4:02)
02. Itsuka Ohjisamaga (5:04)
03. Vet (2:25)
04. Ashkenazy Who? (3:25)
05. Iranaimon (2:46)
06. Taiyo no Onara (9:33)
07. I Sing (4:03)
08. Harusaki Kobeni (3:35)
09. Rose Garden (3:33)

Лог создания рипа

`Exact Audio Copy V1.3 from 2. September 2016

EAC extraction logfile from 17. July 2019, 14:21

矢野顕子 / ただいま。

Used drive : ASUS BW-16D1HT Adapter: 1 ID: 0

Read mode : Secure
Utilize accurate stream : Yes
Defeat audio cache : Yes
Make use of C2 pointers : No

Read offset correction : 6
Overread into Lead-In and Lead-Out : No
Fill up missing offset samples with silence : Yes
Delete leading and trailing silent blocks : No
Null samples used in CRC calculations : Yes
Used interface : Native Win32 interface for Win NT & 2000
Gap handling : Appended to previous track

Used output format : User Defined Encoder
Selected bitrate : 1024 kBit/s
Quality : High
Add ID3 tag : No
Command line compressor : C:Program Files (x86)Exact Audio CopyFlacflac.exe
Additional command line options : -8 -e -V -T "ARTIST=%artist%" -T "TITLE=%src%" -T "ALBUM=%albumsrc%" -T "DATE=%year%" -T "TRACKNUMBER=%tracknr%" -T "GENRE=%genre%" -T "PERFORMER=%albuminterpret%" -T "COMPOSER=%composer%" %haslyrics%--tag-from-file=LYRICS="%lyricsfile%"%haslyrics% -T "ALBUMARTIST=%albumartist%" -T "DISCNUMBER=%cdnumber%" -T "TOTALDISCS=%totalcds%" -T "TOTALTRACKS=%numtracks%" -T "COMMENT=%comment%" %source% -o %dest%

TOC of the extracted CD

Track | Start | Length | Start sector | End sector


1 | 0:00.00 | 4:01.67 | 0 | 18141
2 | 4:01.67 | 5:04.27 | 18142 | 40968
3 | 9:06.19 | 2:25.13 | 40969 | 51856
4 | 11:31.32 | 3:25.05 | 51857 | 67236
5 | 14:56.37 | 2:45.63 | 67237 | 79674
6 | 17:42.25 | 9:33.20 | 79675 | 122669
7 | 27:15.45 | 4:02.62 | 122670 | 140881
8 | 31:18.32 | 3:34.73 | 140882 | 157004
9 | 34:53.30 | 3:33.10 | 157005 | 172989

Track 1

Filename K:MusiqueAkiko01 - ただいま。.wav

Pre-gap length 0:00:02.00

Peak level 99.8 %
Extraction speed 2.7 X
Track quality 100.0 %
Test CRC 019CF095
Copy CRC 019CF095
Accurately ripped (confidence 2) B24B052B
Copy OK

Track 2

Filename K:MusiqueAkiko02 - いつか王子様が.wav

Peak level 99.8 %
Extraction speed 3.1 X
Track quality 100.0 %
Test CRC AFD1E4C3
Copy CRC AFD1E4C3
Accurately ripped (confidence 2) 7BB0C5EC
Copy OK

Track 3

Filename K:MusiqueAkiko03 - VET.wav

Peak level 99.8 %
Extraction speed 3.0 X
Track quality 100.0 %
Test CRC CBF365AE
Copy CRC CBF365AE
Accurately ripped (confidence 2) 618E7E51
Copy OK

Track 4

Filename K:MusiqueAkiko04 - ASHKENAZY WHO.wav

Peak level 99.8 %
Extraction speed 3.4 X
Track quality 100.0 %
Test CRC E7CB29CE
Copy CRC E7CB29CE
Accurately ripped (confidence 2) 8B07BEC1
Copy OK

Track 5

Filename K:MusiqueAkiko05 - いらないもん.wav

Peak level 83.8 %
Extraction speed 3.5 X
Track quality 100.0 %
Test CRC A96CBC6C
Copy CRC A96CBC6C
Accurately ripped (confidence 2) 0D316429
Copy OK

Track 6

Filename K:MusiqueAkiko06 - たいようのおなら - おとうさん - おとうさん - ぼくがおとなになったら - せんせい - おかあさんのおひげ - もし一億円あったら - いぬ - ぼくはなきみそ.wav

Pre-gap length 0:00:01.25

Peak level 99.8 %
Extraction speed 4.3 X
Track quality 100.0 %
Test CRC 19BDB208
Copy CRC 19BDB208
Accurately ripped (confidence 2) 658D548C
Copy OK

Track 7

Filename K:MusiqueAkiko07 - I Sing.wav

Peak level 99.8 %
Extraction speed 4.3 X
Track quality 100.0 %
Test CRC A2738582
Copy CRC A2738582
Accurately ripped (confidence 2) F90B655B
Copy OK

Track 8

Filename K:MusiqueAkiko08 - 春咲小紅.wav

Peak level 99.8 %
Extraction speed 4.4 X
Track quality 100.0 %
Test CRC C7E44B16
Copy CRC C7E44B16
Accurately ripped (confidence 2) 3D75A8B0
Copy OK

Track 9

Filename K:MusiqueAkiko09 - ROSE GARDEN.wav

Peak level 99.8 %
Extraction speed 3.5 X
Track quality 99.9 %
Test CRC A081DA1C
Copy CRC A081DA1C
Accurately ripped (confidence 2) AD344EE7
Copy OK

All tracks accurately ripped

No errors occurred

End of status report

---- CUETools DB Plugin V2.1.6

[CTDB TOCID: kRPedpeUqcVN1FpzSsoh0J2uTj8-] found
Submit result: kRPedpeUqcVN1FpzSsoh0J2uTj8- has been confirmed
Track | CTDB Status
1 | (29/29) Accurately ripped
2 | (29/29) Accurately ripped
3 | (29/29) Accurately ripped
4 | (29/29) Accurately ripped
5 | (29/29) Accurately ripped
6 | (29/29) Accurately ripped
7 | (29/29) Accurately ripped
8 | (29/29) Accurately ripped
9 | (29/29) Accurately ripped

==== Log checksum 1B71049F58F5A066AAD439BF63B7D23B7A78B8823089082A39B6C3FB0AE72102 ==== `

Содержание индексной карты (.CUE)

REM GENRE JPop REM DATE 1981 REM DISCID 84090209 REM COMMENT "ExactAudioCopy v1.3" CATALOG 4988034206666 PERFORMER "Akiko Yano" TITLE "Tadaima." FILE "01 - Tadaima.wav" WAVE TRACK 01 AUDIO TITLE "Tadaima" PERFORMER "Akiko Yano" ISRC JPA308100140 INDEX 01 00:00:00 FILE "02 - Itsuka Ohjisamaga.wav" WAVE TRACK 02 AUDIO TITLE "Itsuka Ohjisamaga" PERFORMER "Akiko Yano" ISRC JPA308100141 INDEX 01 00:00:00 FILE "03 - Vet.wav" WAVE TRACK 03 AUDIO TITLE "Vet" PERFORMER "Akiko Yano" ISRC JPA308100142 INDEX 01 00:00:00 FILE "04 - Ashkenazy Who.wav" WAVE TRACK 04 AUDIO TITLE "Ashkenazy Who?" PERFORMER "Akiko Yano" ISRC JPA308100143 INDEX 01 00:00:00 FILE "05 - Iranaimon.wav" WAVE TRACK 05 AUDIO TITLE "Iranaimon" PERFORMER "Akiko Yano" ISRC JPA308100143 INDEX 01 00:00:00 TRACK 06 AUDIO TITLE "Taiyo no Onara" PERFORMER "Akiko Yano" ISRC JPA308100145 INDEX 00 02:44:44 FILE "06 - Taiyo no Onara.wav" WAVE INDEX 01 00:00:00 FILE "07 - I Sing.wav" WAVE TRACK 07 AUDIO TITLE "I Sing" PERFORMER "Akiko Yano" ISRC JPA308100146 INDEX 01 00:00:00 FILE "08 - Harusaki Kobeni.wav" WAVE TRACK 08 AUDIO TITLE "Harusaki Kobeni" PERFORMER "Akiko Yano" ISRC JPA308100147 INDEX 01 00:00:00 FILE "09 - Rose Garden.wav" WAVE TRACK 09 AUDIO TITLE "Rose Garden" PERFORMER "Akiko Yano" ISRC JPA308100148 INDEX 01 00:00:00

Отчет CUETools

`[CUETools log; Date: 15.02.2020 1:27:40; Version: 2.1.6]
[CTDB TOCID: kRPedpeUqcVN1FpzSsoh0J2uTj8-] found.
Track | CTDB Status
1 | (33/33) Accurately ripped
2 | (33/33) Accurately ripped
3 | (33/33) Accurately ripped
4 | (33/33) Accurately ripped
5 | (33/33) Accurately ripped
6 | (33/33) Accurately ripped
7 | (33/33) Accurately ripped
8 | (33/33) Accurately ripped
9 | (33/33) Accurately ripped
[AccurateRip ID: 000cfde3-006046aa-84090209] found.
Track [CRC | V2] Status
01 97eb5b01|b24b052b Accurately ripped
02 79f77530|7bb0c5ec Accurately ripped
03 40504279|618e7e51 Accurately ripped
04 e6cd1bd0|8b07bec1 Accurately ripped
05 6aa399b9|0d316429 Accurately ripped
06 23b9bf16|658d548c Accurately ripped
07 f7306069|f90b655b Accurately ripped
08 f2835992|3d75a8b0 Accurately ripped
09 4cce35e7|ad344ee7 Accurately ripped
Offsetted by -6:
01 ab7fd425 No match (V2 was not tested)
02 a0752e3c No match (V2 was not tested)
03 2b2a2cf6 No match (V2 was not tested)
04 0ec0f4dd No match (V2 was not tested)
05 354d7ef1 No match (V2 was not tested)
06 638392b3 No match (V2 was not tested)
07 e3cfbf9e No match (V2 was not tested)
08 852b317a No match (V2 was not tested)
09 64503ea1 No match (V2 was not tested)

Track Peak [CRC32] [W/O NULL] [LOG]
-- 99,8 [12476CFC] [E7161D24]
01 99,8 [019CF095] [D0A2AB4E] CRC32
02 99,8 [AFD1E4C3] [42412674] CRC32
03 99,8 [CBF365AE] [D7575882] CRC32
04 99,8 [E7CB29CE] [113E5E6C] CRC32
05 83,8 [A96CBC6C] [709D7D99] CRC32
06 99,8 [19BDB208] [2D43B495] CRC32
07 99,8 [A2738582] [E8D2CA82] CRC32
08 99,8 [C7E44B16] [E4EBB7F5] CRC32
09 99,8 [A081DA1C] [B5E38617] CRC32 `

Об альбоме (сборнике)

Akiko Yano is a legend in Japan. Her 1981 synth-pop masterpiece 'Tadaima.', is co-produced by Ryuichi Sakamoto and features the YMO musicians: Haruomi Hosono, Yukihiro Takahashi and Sakamoto. The CD reissue includes original artwork by cult illustrator King Terry plus a new introduction by renowned DJ and producer Joakim.


More at ibit.to
And ibit.uno
And ibit.am
And ibit.ws

Comments

Files

Akiko Yano - Tadaima. (1981, 2018, Wewantsounds)Artworkfront.jpg 989 kB
Akiko Yano - Tadaima. (1981, 2018, Wewantsounds)Artworkcd.jpg 216 kB
Akiko Yano - Tadaima. (1981, 2018, Wewantsounds)Artworkback.jpg 183 kB
Akiko Yano - Tadaima. (1981, 2018, Wewantsounds)06 - Taiyo no Onara.flac 50 MB
Akiko Yano - Tadaima. (1981, 2018, Wewantsounds)02 - Itsuka Ohjisamaga.flac 33 MB
Akiko Yano - Tadaima. (1981, 2018, Wewantsounds)07 - I Sing.flac 28 MB
Akiko Yano - Tadaima. (1981, 2018, Wewantsounds)01 - Tadaima.flac 27 MB
Akiko Yano - Tadaima. (1981, 2018, Wewantsounds)08 - Harusaki Kobeni.flac 26 MB
Akiko Yano - Tadaima. (1981, 2018, Wewantsounds)09 - Rose Garden.flac 24 MB
Akiko Yano - Tadaima. (1981, 2018, Wewantsounds)04 - Ashkenazy Who.flac 22 MB
Akiko Yano - Tadaima. (1981, 2018, Wewantsounds)03 - Vet.flac 16 MB
Akiko Yano - Tadaima. (1981, 2018, Wewantsounds)05 - Iranaimon.flac 15 MB
Akiko Yano - Tadaima. (1981, 2018, Wewantsounds)folder.jpg 74 kB
Akiko Yano - Tadaima. (1981, 2018, Wewantsounds)Akiko Yano - Tadaima..log 11 kB
Akiko Yano - Tadaima. (1981, 2018, Wewantsounds)Tadaima..accurip 2.0 kB
Akiko Yano - Tadaima. (1981, 2018, Wewantsounds)Tadaima..cue 1.5 kB
Akiko Yano - Tadaima. (1981, 2018, Wewantsounds)Akiko Yano - Tadaima..m3u 203 B

Stream

Downloading Seeding Akiko Yano - Tadaima. (1981, 2018, Wewantsounds) from to 0 peers.
of
0 b/s / ↗0 b/s