• 18
  • 16
  • done
  • [NSBC] Unmei Kara Hajimaru Koi 2020 E02 [WEBDL] [1080p]
  • 765 MB
  • nosoba
  • NSBC Unmei Kara Hajimaru Koi 2020 E02 WEBDL 1080p
  • Live Action - English-translat

Description

TlNCQy50bw==

Subtitle: English & Indonesian
Also available on Subscene
From Viu Indonesia

``` General Unique ID : 207158012088034154817220648934257241680 (0x9BD92E8F08679A9398A3C500A6DCAE50) Complete name : Unmei.Kara.Hajimaru.Koi.2020.S01E02.1080p.WEB-DL.AAC.x264-NSBC.mkv Format : Matroska Format version : Version 4 File size : 765 MiB Duration : 35 min 0 s Overall bit rate : 3 057 kb/s Movie name : Unmei.Kara.Hajimaru.Koi.2020.S01E02.1080p.WEB-DL.AAC.x264-NSBC Encoded by : NoNe | NSBC Encoded date : UTC 2020-02-15 01:06:41 Writing application : mkvmerge v29.0.0 ('Like It Or Not') 64-bit Writing library : libebml v1.3.6 + libmatroska v1.4.9 Copyright : NSBC Comment : NoNe | NSBC DATE_RECORDED : 2020 NOTICE ME : SENPAI WEBSITE : NSBC.to

Video ID : 1 Format : AVC Format/Info : Advanced Video Codec Format profile : [email protected] Format settings : CABAC / 4 Ref Frames Format settings, CABAC : Yes Format settings, Reference frames : 4 frames Codec ID : VMPEG4/ISO/AVC Duration : 35 min 0 s Bit rate : 3 000 kb/s Width : 1 920 pixels Height : 1 080 pixels Display aspect ratio : 16:9 Frame rate mode : Variable Frame rate : 23.931 FPS Original frame rate : 24.000 FPS Color space : YUV Chroma subsampling : 4:2:0 Bit depth : 8 bits Scan type : Progressive Bits/(Pixel*Frame) : 0.060 Stream size : 749 MiB (98%) Title : [NSBC] Writing library : x264 core 152 r2851 ba24899 Encoding settings : cabac=1 / ref=4 / deblock=1:0:0 / analyse=0x3:0x113 / me=hex / subme=8 / psy=1 / psyrd=1.00:0.00 / mixedref=1 / merange=16 / chromame=1 / trellis=2 / 8x8dct=1 / cqm=0 / deadzone=21,11 / fastpskip=1 / chromaqpoffset=-2 / threads=10 / lookaheadthreads=1 / slicedthreads=0 / nr=0 / decimate=1 / interlaced=0 / bluraycompat=0 / constrainedintra=0 / bframes=0 / weightp=2 / keyint=72 / keyintmin=7 / scenecut=40 / intrarefresh=0 / rclookahead=50 / rc=cbr / mbtree=1 / bitrate=3000 / ratetol=1.0 / qcomp=0.90 / qpmin=3 / qpmax=51 / qpstep=8 / vbvmaxrate=3000 / vbvbufsize=12000 / nalhrd=none / filler=0 / ip_ratio=1.40 / aq=1:1.00 Default : Yes Forced : No

Audio ID : 2 Format : AAC LC Format/Info : Advanced Audio Codec Low Complexity Codec ID : A_AAC-2 Duration : 35 min 0 s Bit rate : 64.4 kb/s Channel(s) : 2 channels Channel layout : L R Sampling rate : 44.1 kHz Frame rate : 43.066 FPS (1024 SPF) Compression mode : Lossy Delay relative to video : 46 ms Stream size : 16.1 MiB (2%) Title : [NSBC] Language : Japanese Default : Yes Forced : No

Text #1 ID : 3 Format : UTF-8 Codec ID : S_TEXT/UTF8 Codec ID/Info : UTF-8 Plain Text Duration : 33 min 24 s Bit rate : 41 b/s Count of elements : 468 Stream size : 10.2 KiB (0%) Title : [NSBC] Language : English Default : No Forced : No

Text #2 ID : 4 Format : UTF-8 Codec ID : S_TEXT/UTF8 Codec ID/Info : UTF-8 Plain Text Duration : 33 min 24 s Bit rate : 43 b/s Count of elements : 468 Stream size : 10.6 KiB (0%) Title : [NSBC] Language : Indonesian Default : Yes Forced : No

```


More at ibit.to
And ibit.uno
And ibit.am
And ibit.ws

Comments

Files

Unmei.Kara.Hajimaru.Koi.2020.S01E02.1080p.WEB-DL.AAC.x264-NSBC.mkv 765 MB

Stream

Downloading Seeding [NSBC] Unmei Kara Hajimaru Koi 2020 E02 [WEBDL] [1080p] from to 0 peers.
of
0 b/s / ↗0 b/s