• 4
  • 19
  • done
Download
  • [NSBC] Boku Dake ga 17-sai no Sekai de E07 [WEBDL] [1080p]
  • 1.0 GB
  • nosoba
  • NSBC Boku Dake sai Sekai E07 WEBDL 1080p
  • Live Action - Raw

Description

TlNCQy50bw==

From AbemaTV

``` General Unique ID : 73815075185331932073824148750153234735 (0x37884430797AA90FB9333BCEC3FB392F) Complete name : Boku Dake ga 17-sai no Sekai de S01E07 1080p WEB-DL AAC H.264-NSBC.mkv Format : Matroska Format version : Version 4 File size : 1 014 MiB Duration : 33 min 47 s Overall bit rate : 4 197 kb/s Movie name : Boku Dake ga 17-sai no Sekai de S01E07 1080p WEB-DL AAC H.264-NSBC Encoded by : NoNe | NSBC Encoded date : UTC 2020-03-26 22:20:50 Writing application : mkvmerge v29.0.0 ('Like It Or Not') 64-bit Writing library : libebml v1.3.6 + libmatroska v1.4.9 Copyright : NSBC Comment : NoNe | NSBC DATE_RECORDED : 2020 NOTICE ME : SENPAI WEBSITE : NSBC.to

Video ID : 1 Format : AVC Format/Info : Advanced Video Codec Format profile : [email protected] Format settings : CABAC / 4 Ref Frames Format settings, CABAC : Yes Format settings, Reference frames : 4 frames Codec ID : VMPEG4/ISO/AVC Duration : 33 min 47 s Bit rate : 4 000 kb/s Width : 1 920 pixels Height : 1 080 pixels Display aspect ratio : 16:9 Frame rate mode : Constant Frame rate : 23.976 (24000/1001) FPS Color space : YUV Chroma subsampling : 4:2:0 Bit depth : 8 bits Scan type : Progressive Bits/(Pixel*Frame) : 0.080 Stream size : 967 MiB (95%) Title : [NSBC] Writing library : x264 core 148 r265 3b70645 Encoding settings : cabac=1 / ref=2 / deblock=1:0:0 / analyse=0x1:0x111 / me=hex / subme=7 / psy=1 / psyrd=1.00:0.00 / mixedref=1 / merange=16 / chromame=1 / trellis=1 / 8x8dct=0 / cqm=0 / deadzone=21,11 / fastpskip=1 / chromaqpoffset=-2 / threads=9 / lookaheadthreads=1 / slicedthreads=0 / nr=0 / decimate=1 / interlaced=0 / bluraycompat=0 / constrainedintra=0 / bframes=3 / bpyramid=2 / badapt=1 / bbias=0 / direct=1 / weightb=1 / opengop=0 / weightp=2 / keyint=1000 / keyintmin=501 / scenecut=0 / intrarefresh=0 / rclookahead=40 / rc=2pass / mbtree=1 / bitrate=4000 / ratetol=1.0 / qcomp=0.60 / qpmin=0 / qpmax=69 / qpstep=4 / cplxblur=20.0 / qblur=0.5 / ipratio=1.40 / aq=1:1.00 Default : Yes Forced : No

Audio ID : 2 Format : AAC LC Format/Info : Advanced Audio Codec Low Complexity Codec ID : A_AAC-2 Duration : 33 min 47 s Bit rate : 192 kb/s Channel(s) : 2 channels Channel layout : L R Sampling rate : 44.1 kHz Frame rate : 43.066 FPS (1024 SPF) Compression mode : Lossy Delay relative to video : -23 ms Stream size : 46.9 MiB (5%) Title : [NSBC] Language : Japanese Default : Yes Forced : No ```


More at ibit.to
And ibit.uno
And ibit.am
And ibit.ws

Comments

Files

Boku Dake ga 17-sai no Sekai de S01E07 1080p WEB-DL AAC H.264-NSBC.mkv 1.0 GB

Stream

Downloading Seeding [NSBC] Boku Dake ga 17-sai no Sekai de E07 [WEBDL] [1080p] from to 0 peers.
of
0 b/s / ↗0 b/s