• 1,228
  • 211
  • done
Download

Description

https://myanimelist.net/anime/48583/ShingekinoKyojin_TheFinalSeasonPart_2

Attack on Titan Final Season Part 2 Episode 17 with English subtitles

``` General Unique ID : 108674721968784985116417281689432762006 (0x51C1FD78C04189A63A9E3D1654DA2696) Complete name [BlackLuster] Shingeki no Kyojin - Final Season -17 - Conviction [1080p] [WEB-DL].mkv Format : Matroska Format version : Version 4 File size : 452 MiB Duration : 24 min 21 s Overall bit rate mode : Variable Overall bit rate : 2 595 kb/s Encoded date : UTC 2022-01-09 18:06:34 Writing application : mkvmerge v64.0.0 ('Willows') 64-bit Writing library : libebml v1.4.2 + libmatroska v1.6.4

Video ID : 1 Format : AVC Format/Info : Advanced Video Codec Format profile : [email protected] Format settings : CABAC / 4 Ref Frames Format settings, CABAC : Yes Format settings, Reference frames : 4 frames Codec ID : V_MPEG4/ISO/AVC Duration : 24 min 21 s Bit rate mode : Variable Bit rate : 2 496 kb/s Maximum bit rate : 4 500 kb/s Width : 1 920 pixels Height : 1 080 pixels Display aspect ratio : 16:9 Frame rate mode : Constant Frame rate : 23.976 (24000/1001) FPS Color space : YUV Chroma subsampling : 4:2:0 Bit depth : 8 bits Scan type : Progressive Bits/(Pixel*Frame) : 0.050 Stream size : 435 MiB (96%) Writing library : VOLO1.4.1 Default : Yes Forced : No

Audio ID : 2 Format : AAC LC Format/Info : Advanced Audio Codec Low Complexity Codec ID : A_AAC-2 Duration : 24 min 21 s Bit rate : 96.0 kb/s Channel(s) : 2 channels Channel layout : L R Sampling rate : 48.0 kHz Frame rate : 46.875 FPS (1024 SPF) Compression mode : Lossy Delay relative to video : -42 ms Stream size : 16.7 MiB (4%) Title : Japanese Language : Japanese Default : Yes Forced : No

Text ID : 3 Format : UTF-8 Codec ID : S_TEXT/UTF8 Codec ID/Info : UTF-8 Plain Text Duration : 23 min 17 s Bit rate : 54 b/s Count of elements : 287 Stream size : 9.31 KiB (0%) Title : English Language : English Default : Yes Forced : No ```


More at ibit.to
And ibit.uno
And ibit.am
And ibit.ws

Comments

1 week ago

muda

1 week ago

Nani?!

1 week ago

Ora?!

1 week ago

Nice, a VIU ripper, been a while. At least this one doesn't have the "Muse Asia" logo on the OP/ED, but the quality is meh.

1 week ago

you got me, still, an acceptable quality

1 week ago

@BlackLuster : It's good in size, it's viewable, but very blocky and I'm sure there's better to be done encoding side for the same size result (using a good source).

It'll still be useful to those who can't wait I guess, even tho their subs (asian ones) are sometimes very poor.

Thanks still for uploading it, will probably help some x)

1 week ago

nice

1 week ago

VIU's fast tho

1 week ago

It’ll still be useful to those who can’t wait I guess, even tho their subs (asian ones) are sometimes very poor.

@Luxury Yeah, I know, you're right You're welcome

1 week ago

[@BlackLuster]( any platform using Muse Asia is fast

1 week ago

Officially this is called episode 76. They even say that after the opening

1 week ago

@maroon1 I know but I just used VIU's episode naming

1 week ago

@BlackLuster Look up what muda means

1 week ago

@AnimeIn4K I already know

Files

[BlackLuster] Shingeki no Kyojin - Final Season -17 - Conviction [1080p] [WEB-DL]/[BlackLuster] Shingeki no Kyojin - Final Season -17 - Conviction [10 452 MB

Stream

Downloading Seeding [BlackLuster] Shingeki no Kyojin - Final Season -17 - Conviction [1080p] from to 0 peers.
of
0 b/s / ↗0 b/s