• 1
  • -
  • done
  • Голос Дети 7 сезон 01 выпуск от 2020.02.14.ts
  • 6.7 GB
  • kuzmichm2196
  • 2020
  • Видео, DVD Video, HD Video (по

Description

Голос Дети 7 сезон 01 выпуск от 2020.02.14

image

Год выпуска : 2020

Страна : Россия, Первый канал, Красный квадрат

Жанр : Pop, Show
Продолжительность: 01:38:00

Ведущие : Дмитрий Нагиев, Агата Муцениеце

Наставники

: Полина Гагарина, Валерий Меладзе и Василий Вакуленко Баста

Описание: "Первый канал" представляет премьеру шестого сезона музыкального проекта "Голос. Дети". Детский конкурсный проект строится по тем же принципам, что и взрослый. Из тысяч заявок на участие, присланных в адрес "Первого канала", музыкальная редакция отобрала несколько сотен самых достойных. Первым этапом для участников, прошедших предварительный отбор, становятся Слепые прослушивания. Участники выступают по одному с живым аккомпанементом. Наставники не видят участников, но слышат и оценивают их голоса. Любой Наставник может взять исполнителя в свою команду. Если участника выбрали несколько Наставников, то он сам решает, в чью команду идти. К концу этапа в каждой из трех команд окажется по 15 участников. Поединки - Наставники передают участникам свое мастерство, помогают осваивать сцену, но при этом они должны выбрать лучших. Участники соревнуются между собой в Поединках. В каждом Поединке трое представителей одной команды исполняют одну песню и Наставник выбирает лучшего участника в каждой тройке. Пятеро счастливчиков исполняют по одной песне, после чего Наставник выбирает двух конкурсантов, которые проходят в Финал. В Финале сражаются девять лучших участников проекта — по трое из каждой команды. Каждый из участников исполняет одну песню соло, другую — вместе со своими товарищами по команде и Наставником. После этого телезрители голосуют за конкурсантов в прямом эфире. Двое конкурсантов, набравших минимальное число голосов, выбывают. Оставшиеся участники исполняют еще по одной песне, а телезрители через СМС-голосование выбирают победителя проекта.

  1. Меладзе, Полина Гагарина и Баста. «О, голос!»
    1. Мирон Довгань. «От Волги до Енисея»
    2. Элина Хан. «Back in the U.S.S.R.»
    3. Елизавета Сметанникова. «Экспонат» на лабутенах нах
    4. Зелимхан Атаев. «Parlami d’amore, Mariu»
    5. Милана Волкова. «Не пара»
    6. Таисия Скоморохова. «Goomba Boomba»
    7. Александр Переплетчиков. «Вдоль по улице метелица метет»
    8. Кристина Силлер. «Strange Birds»
    9. Иван Кургалин. «Слишком влюблен»
    10. Анна Бажанова. «Billie Jean»
    11. Алиса Савчиц. «Somewhere»

Качество : HDTV

Разрешение видео/развертка : 1080i

Контейнер : TS

Видео кодек : H.264

Аудио кодек : AC39

Видео : H264; 1920x1080 (16:9); 25.000 fps; ~ 7 985 kb/s

Аудио : AC3, 6 channels, 48000Hz, 384 Кбит/сек

Аудио 2 : MP2, 2 channels, 48000Hz, 192 Кбит/сек

Отчёт MediaInfo / BDInfo

`General
ID : 1 (0x1)
Complete name : H:Голос Дети 7 сезон 01 выпуск от 2020.02.14.ts
Format : MPEG-TS
File size : 6.20 GiB
Duration : 1 h 38 min
Overall bit rate mode : Variable
Overall bit rate : 9 012 kb/s

Video
ID : 1904 (0x770)
Menu ID : 904 (0x388)
Format : AVC
Format/Info : Advanced Video Codec
Format profile : [email protected]
Format settings : CABAC / 3 Ref Frames
Format settings, CABAC : Yes
Format settings, Reference fra : 3 frames
Codec ID : 27
Duration : 1 h 38 min
Bit rate : 7 985 kb/s
Width : 1 920 pixels
Height : 1 080 pixels
Display aspect ratio : 16:9
Frame rate : 25.000 FPS
Standard : Component
Color space : YUV
Chroma subsampling : 4:2:0
Bit depth : 8 bits
Scan type : Interlaced
Scan type, store method : Separated fields
Scan order : Top Field First
Bits/(Pixel*Frame) : 0.154
Stream size : 5.50 GiB (89%)
Color range : Limited
Color primaries : BT.709
Transfer characteristics : BT.709
Matrix coefficients : BT.709

Audio #1
ID : 2904 (0xB58)
Menu ID : 904 (0x388)
Format : AC-3
Format/Info : Audio Coding 3
Commercial name : Dolby Digital
Codec ID : 6
Duration : 1 h 38 min
Bit rate mode : Constant
Bit rate : 384 kb/s
Channel(s) : 6 channels
Channel layout : L R C LFE Ls Rs
Sampling rate : 48.0 kHz
Frame rate : 31.250 FPS (1536 SPF)
Bit depth : 16 bits
Compression mode : Lossy
Stream size : 271 MiB (4%)
Language : Russian
Service kind : Complete Main

Audio #2
ID : 2905 (0xB59)
Menu ID : 904 (0x388)
Format : MPEG Audio
Format version : Version 1
Format profile : Layer 2
Codec ID : 3
Duration : 1 h 38 min
Bit rate mode : Constant
Bit rate : 192 kb/s
Channel(s) : 2 channels
Sampling rate : 48.0 kHz
Frame rate : 41.667 FPS (1152 SPF)
Compression mode : Lossy
Stream size : 135 MiB (2%)
Language : Russian `

Скриншоты

imageimage

imageimage


More at ibit.to
And ibit.uno
And ibit.am
And ibit.ws

Comments

Files

Голос Дети 7 сезон 01 выпуск от 2020.02.14.ts 6.7 GB

Stream

Downloading Seeding Голос Дети 7 сезон 01 выпуск от 2020.02.14.ts from to 0 peers.
of
0 b/s / ↗0 b/s