• 484
  • 11
  • done
Download
  • Лето 1941 года (Бекболат Шекеров) [2022, военный, боевик, WEB-DLRip]
  • 1.5 GB
  • порошков
  • 1941 2022 WEB DLRip
  • Фильмы Ближнего Зарубежья

Description

Лето 1941 года

image

Страна : Казахстан

Жанр : военный, боевик

Год выпуска : 2022

Продолжительность : 01:52:55


Перевод : Не требуется

Субтитры : нет

Оригинальная аудиодорожка : русский


Режиссер :
Бекболат Шекеров


В ролях : Азамат Нигманов, Андрей Олиференко, Шарифбек Закиров, Алихан Лепесбаев, Андрей Сенькин, Елизавета Шукова, Макпал Касенова, Александр Брухацкий, Валентина Гарцуева, Арсений Врагов


Описание : Начало Великой Отечественной войны. Лейтенант Ади Шарипов вместе со своим взводом прикрывают отход штаба полка и остаются в окружении, в тылу врага. Враг загоняет отряд в болото. Страх перед неизвестностью, уныние и сомнения преследуют бойцов, пока они не осознают, что ожидание и бездействие погубят отряд быстрее, чем пули врага.


image


Качество видео : WEB-DLRip

Формат видео : AVI

Видео : 720x304 (2.37:1), 24.000 fps, XviD build 73 ~1456 kbps avg, 0.28 bit/pixel

Аудио : 48 kHz, AC3 Dolby Digital, 3/2 (L,C,R,l,r) + LFE ch, ~384 kbps


Сэмпл


MediaInfo

``

Код:

Формат                                   : AVI
Формат/Информация                        : Audio Video Interleave
Размер файла                             : 1,46 Гбайт
Продолжительность                        : 1 ч. 52 м.
Общий поток                              : 1 850 Кбит/сек
Название фильма                          : Лето 1941 года2022WEB-DLRip
Программа кодирования                    : VirtualDubMod 1.5.10.3 | www.virtualdub-fr.org || (build 2550/release)
Авторское право                          : порошков

Видео
Идентификатор                            : 0
Формат                                   : MPEG-4 Visual
Профиль формата                          : Advanced [email protected]
Настройки формата                        : BVOP1 / Custom Matrix
Параметр BVOP формата                    : 1
Параметр QPel формата                    : Нет
Параметр GMC формата                     : Без точки перехода
Параметр матрицы формата                 : Выборочная
Идентификатор кодека                     : XVID
Идентификатор кодека/Подсказка           : XviD
Продолжительность                        : 1 ч. 52 м.
Битрейт                                  : 1 456 Кбит/сек
Ширина                                   : 720 пикселей
Высота                                   : 304 пикселя
Соотношение сторон                       : 2,35:1
Частота кадров                           : 24,000 кадра/сек
Цветовое пространство                    : YUV
Субдискретизация насыщенности            : 4:2:0
Битовая глубина                          : 8 бит
Тип развёртки                            : Прогрессивная
Метод сжатия                             : С потерями
Бит/(Пиксели*Кадры)                      : 0.277
Размер потока                            : 1,15 Гбайт (79%)
Библиотека кодирования                   : XviD 73

Аудио
Идентификатор                            : 1
Формат                                   : AC-3
Формат/Информация                        : Audio Coding 3
Коммерческое название                    : Dolby Digital
Идентификатор кодека                     : 2000
Продолжительность                        : 1 ч. 52 м.
Вид битрейта                             : Постоянный
Битрейт                                  : 384 Кбит/сек
Каналы                                   : 6 каналов
Channel layout                           : L R C LFE Ls Rs
Частота                                  : 48,0 КГц
Частота кадров                           : 31,250 кадров/сек (1536 SPF)
Метод сжатия                             : С потерями
Размер потока                            : 310 Мбайт (21%)
Выравнивание                             : Разделение по промежуткам
Продолжительность промежутка             : 42  мс. (1,00 видеокадр)
Время предзагрузки промежутка            : 500  мс.
Service kind                             : Complete Main

Скриншоты

imageimageimageimage
imageimage


Сообщения из этой темы [14 шт.] были выделены в отдельную тему Флуд из: Лето 1941 года (Бекболат Шекеров) [2022, военный, боевик, WEB-DLRip] [6211213]

порошков


More at ibit.to
And ibit.uno
And ibit.am
And ibit.ws

Comments

3 months ago

Фильм не понравился, выключил минут через 20-30.

3 months ago

неплохое кино , спасибоСообщения из этой темы [2 шт.] были выделены в отдельную тему Флуд из: Лето 1941 года (Бекболат Шекеров) [2022, военный, боевик, WEB-DLRip] [6211213]порошков

Files

Stream

Downloading Seeding Лето 1941 года (Бекболат Шекеров) [2022, военный, боевик, WEB-DLRip] from to 0 peers.
of
0 b/s / ↗0 b/s